(Classical) Royal Philharmonic Orchestra - Here Come The Classics Volume Four - English String Classics (Britten, Elgar, Holst, Williams, Butterworth) 2002, FLAC (image+.cue) lossless


 

[Цитировать]

Royal Philharmonic Orchestra - Here Come The Classics Volume Four
Жанр: Classical
Страна-производитель диска: Россия
Год издания диска: 2002
Издатель (лейбл): Imagination/megaлайнер рекордз
Номер по каталогу: RPO 004 CD
Дата записи: 20,21.05.2002
Аудиокодек: FLAC
Тип рипа: image+.cue
Битрейт аудио: lossless
Продолжительность: 67.02
Источник: собственный рип
Наличие сканов в содержимом раздачи: да
Треклист:
1.Vaughan Williams - Fantasia On A Theme By Thomas Tallis
2.Britten - Boisterous Bourree (Simple Symphony)
3. - Playful Pizzicato (Simple Symphony)
4. - Sentimental Sarabande (Simple Symphony)
5. - Frolicsome Finale (Simple Symphony)
6.Butterworth - Banks Of Green Willow: Idyll For Orchestra
7.Elgar - Allegro Piacevole (Serenade For Strings)
8. - Larghetto (Serenade For Strings)
9. - Allegretto (Serenade For Strings)
10.Holst - Jig (St Paul's Suite)
11. - Ostinato (St Paul's Suite)
12. - Intermezzo (St Paul's Suite)
13. - Finale (The Dargason) (St Paul's Suite)
Исполнители:
The Royal Philharmonic Orchestra,
Christopher Warren-Green - conductor

Лог создания рипа

Exact Audio Copy V1.0 beta 3 from 29. August 2011
Отчёт EAC об извлечении, выполненном 16. декабря 2015, 15:17
Royal Philharmonic Orchestra / Here Come The Classics Volume 4 - English Strings
Дисковод: TSSTcorpCDDVDW SN-208BB Adapter: 1 ID: 0
Режим чтения : Достоверность
Использование точного потока : Да
Отключение кэша аудио : Да
Использование указателей C2 : Нет
Коррекция смещения при чтении : 6
Способность читать области Lead-in и Lead-out : Нет
Заполнение пропущенных сэмплов тишиной : Да
Удаление блоков с тишиной в начале и конце : Нет
При вычислениях CRC использовались нулевые сэмплы : Да
Интерфейс : Встроенный Win32-интерфейс для Win NT/2000
Выходной формат : Пользовательский кодировщик
Выбранный битрейт : 128 kBit/s
Качество : Высокий
Добавление ID3-тега : Нет
Утилита сжатия : C:\Program Files (x86)\Exact Audio Copy\Flac\flac.exe
Дополнительные параметры : -V -8 -T "Date=%year%" -T "Genre=%genre%" %source%
TOC извлечённого CD
Трек | Старт | Длительность | Начальный сектор | Конечный сектор
---------------------------------------------------------------------
1 | 0:00.00 | 16:34.48 | 0 | 74597
2 | 16:34.48 | 2:46.64 | 74598 | 87111
3 | 19:21.37 | 3:17.00 | 87112 | 101886
4 | 22:38.37 | 9:08.18 | 101887 | 143004
5 | 31:46.55 | 3:00.52 | 143005 | 156556
6 | 34:47.32 | 6:28.31 | 156557 | 185687
7 | 41:15.63 | 3:42.38 | 185688 | 202375
8 | 44:58.26 | 6:27.71 | 202376 | 231471
9 | 51:26.22 | 2:56.54 | 231472 | 244725
10 | 54:23.01 | 3:13.41 | 244726 | 259241
11 | 57:36.42 | 1:46.55 | 259242 | 267246
12 | 59:23.22 | 4:11.02 | 267247 | 286073
13 | 63:34.24 | 3:27.50 | 286074 | 301648
Характеристики диапазона извлечения и сообщения об ошибках
Выбранный диапазон
Имя файла C:\Users\Samsung\Documents\Royal Philharmonic Orchestra - Here Comes The Classics Volume 4\Royal Philharmonic Orchestra - Here Come The Classics Volume 4 - English Strings.wav
Пиковый уровень 99.3 %
Скорость извлечения 3.2 X
Качество диапазона 100.0 %
CRC теста B78EBFDC
CRC копии B78EBFDC
Копирование... OK
Ошибок не произошло
AccurateRip: сводка
Трек 1 отсутствует в базе данных
Трек 2 отсутствует в базе данных
Трек 3 отсутствует в базе данных
Трек 4 отсутствует в базе данных
Трек 5 отсутствует в базе данных
Трек 6 отсутствует в базе данных
Трек 7 отсутствует в базе данных
Трек 8 отсутствует в базе данных
Трек 9 отсутствует в базе данных
Трек 10 отсутствует в базе данных
Трек 11 отсутствует в базе данных
Трек 12 отсутствует в базе данных
Трек 13 отсутствует в базе данных
Ни одного трека нет в базе AccurateRip
Конец отчёта
==== Контрольная сумма отчёта 04B99FAE180F41C13C59F392B15B0DEB3F53F46AB3F3C02CF5717DF261D6F665 ====

Содержание индексной карты (.CUE)

REM GENRE Classical
REM DATE 2002
REM DISCID CD0FB50D
REM COMMENT "ExactAudioCopy v1.0b3"
CATALOG 0000000000000
PERFORMER "Royal Philharmonic Orchestra"
TITLE "Here Come The Classics Volume 4 - English Strings"
FILE "Royal Philharmonic Orchestra - Here Come The Classics Volume 4 - English Strings.flac" WAVE
TRACK 01 AUDIO
TITLE "Fantasia on a theme by Thomas Tallis"
PERFORMER "Vaughan Williams"
INDEX 01 00:00:00
TRACK 02 AUDIO
TITLE "Simple Symphony : Boisterous bourree"
PERFORMER "Britten"
INDEX 01 16:34:48
TRACK 03 AUDIO
TITLE "Simple Symphony : Playful pizzicato"
PERFORMER "Britten"
INDEX 01 19:21:37
TRACK 04 AUDIO
TITLE "Simple Symphony : Sentimental sarabande"
PERFORMER "Britten"
INDEX 01 22:38:37
TRACK 05 AUDIO
TITLE "Simple Symphony : Frolicsome finale"
PERFORMER "Britten"
INDEX 01 31:46:55
TRACK 06 AUDIO
TITLE "Banks of Green Willow: Idyll for Orchestra"
PERFORMER "Butterworth"
INDEX 01 34:47:32
TRACK 07 AUDIO
TITLE "Serande for Strings : Allegro piacevole"
PERFORMER "Elgar"
INDEX 01 41:15:63
TRACK 08 AUDIO
TITLE "Serande for Strings : Larghetto"
PERFORMER "Elgar"
INDEX 01 44:58:26
TRACK 09 AUDIO
TITLE "Serande for Strings : Allegretto"
PERFORMER "Elgar"
INDEX 01 51:26:22
TRACK 10 AUDIO
TITLE "St Paul's Suite : Jig"
PERFORMER "Holst"
INDEX 01 54:23:01
TRACK 11 AUDIO
TITLE "St Paul's Suite : Ostinato"
PERFORMER "Holst"
INDEX 01 57:36:42
TRACK 12 AUDIO
TITLE "St Paul's Suite : Intermezzo"
PERFORMER "Holst"
INDEX 01 59:23:22
TRACK 13 AUDIO
TITLE "St Paul's Suite : Final (The Dargason)"
PERFORMER "Holst"
INDEX 01 63:34:24



Показать сообщения:    

Текущее время: 05-Дек 19:38

Часовой пояс: UTC + 3


Вы не можете начинать темы
Вы не можете отвечать на сообщения
Вы не можете редактировать свои сообщения
Вы не можете удалять свои сообщения
Вы не можете голосовать в опросах
Вы не можете прикреплять файлы к сообщениям
Вы не можете скачивать файлы