(Classical, Christmas) Royal Philharmonic Orchestra - Here Come The Classics Volume Five - Christmas Classics (Чайковский, christmas traditional songs)- 2002, FLAC (image+.cue) lossless


 

[Цитировать]

Royal Philharmonic Orchestra - Here Come The Classics Volume Five - Christmas Classics
Жанр: Classical, Christmas
Страна-производитель диска: Россия
Год издания диска: 2002
Издатель (лейбл): Imagination/megaлайнер рекордз
Номер по каталогу: RPO 005 CD
Дата записи: 22,23.05.2002
Аудиокодек: FLAC
Тип рипа: image+.cue
Битрейт аудио: lossless
Продолжительность: 66.12
Источник: собственный рип
Наличие сканов в содержимом раздачи: да
Треклист:
1.White Christmas
2.It's The Most Wonderful Time Of The Year
3.Let It Snow
4.Sleigh Ride
5.Mary's Bov Child
6.Little Drommer Rdy
7.Hansel Amd Gretel, Overture
8.Have Yourself A Merry Little Christmas
9.I Believe In Father Christmas
10.Winter Wonderland
11.The Christmas Song
12.Lieutenant Rue. Troika
Tchaikovsky - The Nutcracker
13.Miniature Overture (The Nutcracker Suite)
14.March (The Nutcracker Suite)
15.Dance Of The Sugar Plum Fairy (The Nutcracker Suite)
16.Trepak (The Nutcracker Suite)
17.Arabian Dance (The Nutcracker Suite)
18.Chinese Dance (The Nutcracker Suite)
19.Dance Of The Mirlitons (The Nutcracker Suite)
20.Waltz Of The Flowers (The Nutcracker Suite)
Исполнители:
The Royal Philharmonic Orchestra,
David Arnold - conductor
Mary Carewe, Michael Dore - vocalists

Лог создания рипа

Exact Audio Copy V1.0 beta 3 from 29. August 2011
Отчёт EAC об извлечении, выполненном 16. декабря 2015, 15:52
Royal Philarmonic Orchestra / Christmas Classics
Дисковод: TSSTcorpCDDVDW SN-208BB Adapter: 1 ID: 0
Режим чтения : Достоверность
Использование точного потока : Да
Отключение кэша аудио : Да
Использование указателей C2 : Нет
Коррекция смещения при чтении : 6
Способность читать области Lead-in и Lead-out : Нет
Заполнение пропущенных сэмплов тишиной : Да
Удаление блоков с тишиной в начале и конце : Нет
При вычислениях CRC использовались нулевые сэмплы : Да
Интерфейс : Встроенный Win32-интерфейс для Win NT/2000
Выходной формат : Пользовательский кодировщик
Выбранный битрейт : 128 kBit/s
Качество : Высокий
Добавление ID3-тега : Нет
Утилита сжатия : C:\Program Files (x86)\Exact Audio Copy\Flac\flac.exe
Дополнительные параметры : -V -8 -T "Date=%year%" -T "Genre=%genre%" %source%
TOC извлечённого CD
Трек | Старт | Длительность | Начальный сектор | Конечный сектор
---------------------------------------------------------------------
1 | 0:00.00 | 3:19.03 | 0 | 14927
2 | 3:19.03 | 2:37.27 | 14928 | 26729
3 | 5:56.30 | 2:14.40 | 26730 | 36819
4 | 8:10.70 | 3:02.32 | 36820 | 50501
5 | 11:13.27 | 4:07.15 | 50502 | 69041
6 | 15:20.42 | 3:05.56 | 69042 | 82972
7 | 18:26.23 | 8:02.53 | 82973 | 119175
8 | 26:29.01 | 4:03.03 | 119176 | 137403
9 | 30:32.04 | 2:54.65 | 137404 | 150518
10 | 33:26.69 | 2:08.39 | 150519 | 160157
11 | 35:35.33 | 3:43.32 | 160158 | 176914
12 | 39:18.65 | 3:03.19 | 176915 | 190658
13 | 42:22.09 | 3:23.17 | 190659 | 205900
14 | 45:45.26 | 2:51.28 | 205901 | 218753
15 | 48:36.54 | 1:58.02 | 218754 | 227605
16 | 50:34.56 | 1:12.55 | 227606 | 233060
17 | 51:47.36 | 3:30.23 | 233061 | 248833
18 | 55:17.59 | 1:07.23 | 248834 | 253881
19 | 56:25.07 | 2:45.28 | 253882 | 266284
20 | 59:10.35 | 7:02.22 | 266285 | 297956
Характеристики диапазона извлечения и сообщения об ошибках
Выбранный диапазон
Имя файла C:\Users\Samsung\Documents\Royal Philharmonic Orchestra - Here Comes The Classics Volume 5\Royal Philarmonic Orchestra - Christmas Classics.wav
Пиковый уровень 99.8 %
Скорость извлечения 4.6 X
Качество диапазона 100.0 %
CRC теста 0FC9C39A
CRC копии 0FC9C39A
Копирование... OK
Ошибок не произошло
AccurateRip: сводка
Трек 1 отсутствует в базе данных
Трек 2 отсутствует в базе данных
Трек 3 отсутствует в базе данных
Трек 4 отсутствует в базе данных
Трек 5 отсутствует в базе данных
Трек 6 отсутствует в базе данных
Трек 7 отсутствует в базе данных
Трек 8 отсутствует в базе данных
Трек 9 отсутствует в базе данных
Трек 10 отсутствует в базе данных
Трек 11 отсутствует в базе данных
Трек 12 отсутствует в базе данных
Трек 13 отсутствует в базе данных
Трек 14 отсутствует в базе данных
Трек 15 отсутствует в базе данных
Трек 16 отсутствует в базе данных
Трек 17 отсутствует в базе данных
Трек 18 отсутствует в базе данных
Трек 19 отсутствует в базе данных
Трек 20 отсутствует в базе данных
Ни одного трека нет в базе AccurateRip
Конец отчёта
==== Контрольная сумма отчёта 64AF90222B08DC67D3040EA78B81D1189D6EE1EC3A99E893F2EE02C9D65B0466 ====

Содержание индексной карты (.CUE)

REM GENRE Classical
REM DATE 2002
REM DISCID 140F8414
REM COMMENT "ExactAudioCopy v1.0b3"
CATALOG 0000000000000
PERFORMER "Royal Philarmonic Orchestra"
TITLE "Christmas Classics"
FILE "Royal Philarmonic Orchestra - Christmas Classics.flac" WAVE
TRACK 01 AUDIO
TITLE "Whine Christmas"
PERFORMER "Royal Philarmonic Orchestra"
FLAGS DCP
INDEX 01 00:00:00
TRACK 02 AUDIO
TITLE "It's The Most Wonderful Time Of The Year"
PERFORMER "Royal Philarmonic Orchestra"
FLAGS DCP
INDEX 01 03:19:03
TRACK 03 AUDIO
TITLE "Let It Snow"
PERFORMER "Royal Philarmonic Orchestra"
FLAGS DCP
INDEX 01 05:56:30
TRACK 04 AUDIO
TITLE "Sleigh Ride"
PERFORMER "Royal Philarmonic Orchestra"
FLAGS DCP
INDEX 01 08:10:70
TRACK 05 AUDIO
TITLE "Mary's Boy Child"
PERFORMER "Royal Philarmonic Orchestra"
FLAGS DCP
INDEX 01 11:13:27
TRACK 06 AUDIO
TITLE "Little Drumer Boy"
PERFORMER "Royal Philarmonic Orchestra"
FLAGS DCP
INDEX 01 15:20:42
TRACK 07 AUDIO
TITLE "Hansel And Gretel, Overture"
PERFORMER "Royal Philarmonic Orchestra"
FLAGS DCP
INDEX 01 18:26:23
TRACK 08 AUDIO
TITLE "Have Youself A Merry Little Cgristmas"
PERFORMER "Royal Philarmonic Orchestra"
FLAGS DCP
INDEX 01 26:29:01
TRACK 09 AUDIO
TITLE "I Believe In Father Christmas"
PERFORMER "Royal Philarmonic Orchestra"
FLAGS DCP
INDEX 01 30:32:04
TRACK 10 AUDIO
TITLE "Winter Wonderland"
PERFORMER "Royal Philarmonic Orchestra"
FLAGS DCP
INDEX 01 33:26:69
TRACK 11 AUDIO
TITLE "The Christmas Song"
PERFORMER "Royal Philarmonic Orchestra"
FLAGS DCP
INDEX 01 35:35:33
TRACK 12 AUDIO
TITLE "Lieutenant Kije, Troika"
PERFORMER "Royal Philarmonic Orchestra"
FLAGS DCP
INDEX 01 39:18:65
TRACK 13 AUDIO
TITLE "The Nutckracker Suite"
PERFORMER "Royal Philarmonic Orchestra"
FLAGS DCP
INDEX 01 42:22:09
TRACK 14 AUDIO
TITLE "The Nutckracker Suite"
PERFORMER "Royal Philarmonic Orchestra"
FLAGS DCP
INDEX 01 45:45:26
TRACK 15 AUDIO
TITLE "The Nutckracker Suite"
PERFORMER "Royal Philarmonic Orchestra"
FLAGS DCP
INDEX 01 48:36:54
TRACK 16 AUDIO
TITLE "The Nutckracker Suite"
PERFORMER "Royal Philarmonic Orchestra"
FLAGS DCP
INDEX 01 50:34:56
TRACK 17 AUDIO
TITLE "The Nutckracker Suite"
PERFORMER "Royal Philarmonic Orchestra"
FLAGS DCP
INDEX 01 51:47:36
TRACK 18 AUDIO
TITLE "The Nutckracker Suite"
PERFORMER "Royal Philarmonic Orchestra"
FLAGS DCP
INDEX 01 55:17:59
TRACK 19 AUDIO
TITLE "The Nutckracker Suite"
PERFORMER "Royal Philarmonic Orchestra"
FLAGS DCP
INDEX 01 56:25:07
TRACK 20 AUDIO
TITLE "The Nutckracker Suite"
PERFORMER "Royal Philarmonic Orchestra"
FLAGS DCP
INDEX 01 59:10:35



Показать сообщения:    

Текущее время: 08-Дек 11:00

Часовой пояс: UTC + 3


Вы не можете начинать темы
Вы не можете отвечать на сообщения
Вы не можете редактировать свои сообщения
Вы не можете удалять свои сообщения
Вы не можете голосовать в опросах
Вы не можете прикреплять файлы к сообщениям
Вы не можете скачивать файлы