Негодование / Стреляй / Возмущение/ Dispara! / Shoot! / Outrage (Карлос Саура / Carlos Saura) [1993, Италия, Испания, Криминальная драма, VHSRip] AVO (Сергей Визгунов) + Sub Eng


Статистика раздачи [Обновить пиров]
Размер:  1.46 GB   |    Зарегистрирован:  8 месяцев 19 дней   |    Скачан:  0 раз

Полного источника не было: Никогда

 
   
 
 
 

[Цитировать]

Негодование / Стреляй / Dispara! / Shoot! / Outrage

"Revenge is Just the Beginning..."

Страна: Италия, Испания
Жанр: Криминальная драма
Год выпуска: 1993
Продолжительность: 01:48:01
Перевод: Авторский (одноголосый закадровый) Сергей Визгунов
Cубтитры: английские
Режиссер: Карлос Саура / Carlos Saura
В ролях: Франческа Нери, Антонио Бандерас, Лали Рамон, Вальтер Видарте, Коке Майа, Ачеро Маньас, Родриго Вальверде, Чема Масо, Конча Леса, Даниэль Поса Лопес, Сесарео Эстебаньес
Описание: Аннотация от alenavova
Маркос Валлес по заданию редакции должен сделать репортаж о гастролях цирка. Среди прочих раритетов здесь выступает супер-наездница Джудитта, обладающая редким даром меткой стрельбы. Задание превращается в легкую любовную связь, которая затем перерастает в глубокую страсть. Но в один страшный день, когда влюбленные были разлучены, девушка была изнасилована тремя подонками. Она вступает на тропу мести, которая приведет к еще более крупным жертвам и гибели их любви. Обратим внимание на испанского актера Антония Бандероса в его доголливудский период. Получив закалку у великого Альмодовара этот актер в паре с итальянской актрисой Ф.Нери творит хорошее кино!
Доп. информация: Оцифровка VHS (личный архив) и получение VHSRip alenavova
Сэмпл: https://yadi.sk/i/kU8b_BVhmL9PX
Качество видео: VHSRip
Формат видео: AVI
Видео: 704x528 (1.33:1), 25 fps, XviD build 73 ~1737 kbps avg, 0.19 bit/pixel
Аудио: 48 kHz, AC3 Dolby Digital, 2/0 (L,R) ch, ~192 kbps
Формат субтитров: hardsub (неотключаемые)

MediaInfo

Негодование - Dispara! [by alenavova].avi
Format : AVI
Format/Info : Audio Video Interleave
File size : 1.46 GiB
Duration : 1h 48mn
Overall bit rate : 1 939 Kbps
Movie name : Негодование - Dispara! [by alenavova]
Director : by alenavova
Writing application : VirtualDubMod 1.5.10.3 | www.virtualdub-fr.org || (build 2550/release)
Copyright : Edich2
Comment : RuTracker.org
Video
ID : 0
Format : MPEG-4 Visual
Format profile : Advanced Simple@L5
Format settings, BVOP : 1
Format settings, QPel : No
Format settings, GMC : No warppoints
Format settings, Matrix : Custom
Codec ID : XVID
Codec ID/Hint : XviD
Duration : 1h 48mn
Bit rate : 1 738 Kbps
Width : 704 pixels
Height : 528 pixels
Display aspect ratio : 4:3
Frame rate : 25.000 fps
Color space : YUV
Chroma subsampling : 4:2:0
Bit depth : 8 bits
Scan type : Progressive
Compression mode : Lossy
Bits/(Pixel*Frame) : 0.187
Stream size : 1.31 GiB (90%)
Writing library : XviD 73
Audio
ID : 1
Format : AC-3
Format/Info : Audio Coding 3
Mode extension : CM (complete main)
Format settings, Endianness : Big
Codec ID : 2000
Duration : 1h 48mn
Bit rate mode : Constant
Bit rate : 192 Kbps
Channel(s) : 2 channels
Channel positions : Front: L R
Sampling rate : 48.0 KHz
Bit depth : 16 bits
Compression mode : Lossy
Stream size : 148 MiB (10%)
Alignment : Split accross interleaves
Interleave, duration : 40 ms (1.00 video frame)
Interleave, preload duration : 500 ms

Скриншоты


[teatrix.ru].t22727.torrent 
Торрент: Зарегистрирован [ 2016-03-21 00:18 ] · 5AD2CBEA47B627387B84CBDD37617F02AFC8B93B

Скачать .torrent

Скачать

15 KB

Статус: проверено
Скачан: 0 раз
Размер: 1.46 GB
terms.php



Быстрый ответ

Имя:

      
Для отправки сообщений необходимо включить JavaScript
Показать сообщения:    

Текущее время: 09-Дек 22:19

Часовой пояс: UTC + 3


Вы можете начинать темы
Вы можете отвечать на сообщения
Вы не можете редактировать свои сообщения
Вы не можете удалять свои сообщения
Вы не можете голосовать в опросах
Вы не можете прикреплять файлы к сообщениям
Вы можете скачивать файлы