Табу / Taboo / Gohatto (Нагиса Осима / Nagisa Oshima) [1999, Япония, Франция, Великобритания, триллер, драма, история, DVDRip] AVO (Сербин) + Ita (Dub)


Статистика раздачи [Обновить пиров]
Размер:  1.37 GB   |    Зарегистрирован:  8 месяцев 17 дней   |    Скачан:  0 раз

Полного источника не было: Никогда

 
   
 
 
 

[Цитировать]

Табу / Taboo / Gohatto
Страна: Япония, Франция, Великобритания
Жанр: триллер, драма, история
Год выпуска: 1999
Продолжительность: 01:39:22
Перевод: Авторский (одноголосый закадровый) Сербин
Перевод 2: Итальянский (дубляж)
Cубтитры: нет
Оригинальная аудиодорожка: нет
Режиссер: Нагиса Осима / Nagisa Oshima
В ролях: Рюхэй Мацуда, Таданобу Асано, Синдзи Такеда, Такеши Китано, Ёити Саи, Дзиро Сакагами, Кодзи Матоба, Маса Томмиэс, Масато Ибу, Дзакоба Кацура
Описание: Феодальная Япония, кланы борются за единую власть. Подвиг самураев — пример и руководство к действию. И вот в один из отрядов поступает молодой новобранец. Длинные волосы, девичье лицо, одежды нежных оттенков… В результате голубой молодой воин свел с ума большую часть войска, вызвав немало ссор и даже убийств.
Доп. информация:
Рип заменен.
Торрент файл перезалит
Сэмпл: http://sendfile.su/1210702
Качество видео: DVDRip
Формат видео: AVI
Видео: 704x432 (1.63:1), 25 fps, DivX Codec 5.2.1 build 1328 ~1574 kbps avg, 0.21 bit/pixel
Аудио: 48 kHz, AC3 Dolby Digital, 2/0 (L,R) ch, ~192 kbps
Аудио: 48 kHz, MPEG Layer 3, 2 ch, ~192.00 kbps avg (Ita)

MediaInfo

Формат : AVI
Формат/Информация : Audio Video Interleave
Размер файла : 1,37 Гбайт
Продолжительность : 1 ч. 39 м.
Общий поток : 1974 Кбит/сек
Программа кодирования : VirtualDubMod 1.5.10.3 || (build 2550/release)
Библиотека кодирования : VirtualDubMod build 2550/release
Видео
Идентификатор : 0
Формат : MPEG-4 Visual
Параметр BVOP формата : 1
Параметр QPel формата : Нет
Параметр GMC формата : Без точки перехода
Параметр матрицы формата : Default (H.263)
Идентификатор кодека : DX50
Идентификатор кодека/Подсказка : DivX 5
Продолжительность : 1 ч. 39 м.
Битрейт : 1576 Кбит/сек
Ширина : 704 пикселя
Высота : 432 пикселя
Соотношение сторон : 1,630
Частота кадров : 25,000 кадров/сек
Цветовое пространство : YUV
Субдискретизация насыщенности : 4:2:0
Битовая глубина : 8 бит
Тип развёртки : Прогрессивная
Метод сжатия : С потерями
Бит/(Пиксели*Кадры) : 0.207
Размер потока : 1,09 Гбайт (80%)
Библиотека кодирования : DivX 5.2.1 (WaffleDay) (UTC 2004-09-08)
Аудио #1
Идентификатор : 1
Формат : AC-3
Формат/Информация : Audio Coding 3
Расширение режима : CM (complete main)
Идентификатор кодека : 2000
Продолжительность : 1 ч. 39 м.
Вид битрейта : Постоянный
Битрейт : 192 Кбит/сек
Каналы : 2 канала
Расположение каналов : Front: L R
Частота : 48,0 КГц
Битовая глубина : 16 бит
Метод сжатия : С потерями
Размер потока : 136 Мбайт (10%)
Выравнивание : Разделение по промежуткам
Продолжительность промежутка : 40 мс. (1,00 видеокадр)
Время предзагрузки промежутка : 500 мс.
Аудио #2
Идентификатор : 2
Формат : MPEG Audio
Версия формата : Version 1
Профиль формата : Layer 3
Режим : Joint stereo
Расширение режима : MS Stereo
Идентификатор кодека : 55
Идентификатор кодека/Подсказка : MP3
Продолжительность : 1 ч. 39 м.
Вид битрейта : Постоянный
Битрейт : 192 Кбит/сек
Каналы : 2 канала
Частота : 48,0 КГц
Метод сжатия : С потерями
Размер потока : 136 Мбайт (10%)
Выравнивание : Соединение по промежуткам
Продолжительность промежутка : 40 мс. (1,00 видеокадр)
Время предзагрузки промежутка : 504 мс.
Библиотека кодирования : LAME3.97
Настройки программы : -m j -V 4 -q 2 -lowpass 18.6 -b 192

Скриншоты

[teatrix.ru].t22729.torrent 
Торрент: Зарегистрирован [ 2016-03-21 00:14 ] · C984439D21E9AFEDD7E0AB832F1591AF3E117E2F

Скачать .torrent

Скачать

28 KB

Статус: проверено
Скачан: 0 раз
Размер: 1.37 GB
terms.php



Быстрый ответ

Имя:

      
Для отправки сообщений необходимо включить JavaScript
Показать сообщения:    

Текущее время: 07-Дек 17:28

Часовой пояс: UTC + 3


Вы можете начинать темы
Вы можете отвечать на сообщения
Вы не можете редактировать свои сообщения
Вы не можете удалять свои сообщения
Вы не можете голосовать в опросах
Вы не можете прикреплять файлы к сообщениям
Вы можете скачивать файлы