(Classical Music) [CD] VA Die Hit-Giganten: Best Of Klassik (3CD) - 2015, FLAC (image+.cue) lossless


 

[Цитировать]

Die Hit-Giganten: Best Of Klassik (3CD)
Жанр: Classical Music
Страна-производитель диска: Germany
Год издания диска: 2015
Издатель (лейбл): Sony Music
Номер по каталогу: 88875137232
Аудиокодек: FLAC
Тип рипа: image+.cue
Битрейт аудио: lossless
Продолжительность: 04:01:26
Источник: rd
Наличие сканов в содержимом раздачи: да

CD 1 01:19:43

01. Fortuna Imperatrix Mundi : O Fortuna – London Symphony Chorus / Boy’s Choir Of St. Paul’s Cathedral, London, The / London Symphony Orchestra
02. Die Walküre: Walkürenritt (Live) – Orchester Der Tiroler Festspiele
03. Violin Concerto No. 4 In F Minor, Rv 297, ‚L’inverno‘ : I. Allegro Non Molto – Moscow Virtuosi
04. Iii. Alla Turca. Allegretto
05. Iii. Poco Allegretto – Ndr Sinfonieorchester
06. Sabre Dance – Boston Pops Orchestra
07. In The Hall Of The Mountain King – Philadelphia Orchestra, The
08. Vii. Waltz Ii – Radio-Sinfonie-Orchester Frankfurt
09. Hungarian Dance No. 5 In G Minor – London Festival Orchestra
10. Acte 2 : Tango – Le Sage, Eric
11. Allegro – Orchestra Da Camera Italiana
12. No. 12, Divertissement: Dance Of The Flutes – Orchestra Of The Royal Opera House, Covent Garden, The / Halesworth Middle School Choir
13. Valse Lente – Orchestra Of The Royal Opera House, Covent Garden, The
14. Ii. Tempo Di Valse – Münchner Philharmoniker
15. Ebben?… Ne Andro Lontana – Münchner Rundfunkorchester / Chor Des Bayerischen Rundfunks
16. Liebestraum No. 3 – Boston Pops Orchestra
17. Pavane Pour Une Infante Defunte, M. 19 – Chicago Symphony Orchestra
18. V. Love Theme – Filarmonica Della Scala
19. Io Sono Docile – Metropolitan Opera Chorus / Metropolitan Opera Orchestra
20. Lacrimosa – Chor Des Bayerischen Rundfunks / Symphonieorchester Des Bayerischen Rundfunks
21. Ave Maria, D. 839 – Vienna Symphony Orchestra

Лог создания рипа

Exact Audio Copy V1.1 from 23. June 2015
EAC extraction logfile from 22. November 2015, 16:49
Various Artists / Die Hit Giganten Best of Klassik CD1
Used drive : PIONEER BD-RW BDR-209D Adapter: 0 ID: 4
Read mode : Secure
Utilize accurate stream : Yes
Defeat audio cache : Yes
Make use of C2 pointers : No
Read offset correction : 667
Overread into Lead-In and Lead-Out : No
Fill up missing offset samples with silence : Yes
Delete leading and trailing silent blocks : No
Null samples used in CRC calculations : Yes
Used interface : Installed external ASPI interface
Used output format : User Defined Encoder
Selected bitrate : 768 kBit/s
Quality : High
Add ID3 tag : No
Command line compressor : C:\Program Files (x86)\Exact Audio Copy\FLAC\FLAC.EXE
Additional command line options : -6 -V -T "ARTIST=%artist%" -T "TITLE=%title%" -T "ALBUM=%albumtitle%" -T "DATE=%year%" -T "TRACKNUMBER=%tracknr%" -T "GENRE=%genre%" -T "COMMENT=%comment%" -T "BAND=%albuminterpret%" -T "ALBUMARTIST=%albuminterpret%" -T "COMPOSER=%composer%" %haslyrics%--tag-from-file=LYRICS="%lyricsfile%"%haslyrics% -T "DISCNUMBER=%cdnumber%" -T "TOTALDISCS=%totalcds%" -T "TOTALTRACKS=%numtracks%" %hascover%--picture="%coverfile%"%hascover% %source% -o %dest%
TOC of the extracted CD
Track | Start | Length | Start sector | End sector
---------------------------------------------------------
1 | 0:00.00 | 2:50.10 | 0 | 12759
2 | 2:50.10 | 5:18.70 | 12760 | 36679
3 | 8:09.05 | 3:30.16 | 36680 | 52445
4 | 11:39.21 | 3:44.36 | 52446 | 69281
5 | 15:23.57 | 5:45.16 | 69282 | 95172
6 | 21:08.73 | 2:26.15 | 95173 | 106137
7 | 23:35.13 | 2:52.32 | 106138 | 119069
8 | 26:27.45 | 3:53.11 | 119070 | 136555
9 | 30:20.56 | 2:23.28 | 136556 | 147308
10 | 32:44.09 | 1:46.54 | 147309 | 155312
11 | 34:30.63 | 3:46.48 | 155313 | 172310
12 | 38:17.36 | 2:35.65 | 172311 | 184000
13 | 40:53.26 | 2:08.21 | 184001 | 193621
14 | 43:01.47 | 6:57.30 | 193622 | 224926
15 | 49:59.02 | 3:53.15 | 224927 | 242416
16 | 53:52.17 | 4:15.01 | 242417 | 261542
17 | 58:07.18 | 6:31.25 | 261543 | 290892
18 | 64:38.43 | 2:53.48 | 290893 | 303915
19 | 67:32.16 | 3:56.66 | 303916 | 321681
20 | 71:29.07 | 3:20.09 | 321682 | 336690
21 | 74:49.16 | 4:54.04 | 336691 | 358744
Range status and errors
Selected range
Filename E:\MUSIC\Various Artists - Die Hit Giganten Best of Klassik CD1.wav
Peak level 99.0 %
Extraction speed 8.5 X
Range quality 100.0 %
Test CRC 66A84BD5
Copy CRC 66A84BD5
Copy OK
No errors occurred
AccurateRip summary
Track 1 not present in database
Track 2 not present in database
Track 3 not present in database
Track 4 not present in database
Track 5 not present in database
Track 6 not present in database
Track 7 not present in database
Track 8 not present in database
Track 9 not present in database
Track 10 not present in database
Track 11 not present in database
Track 12 not present in database
Track 13 not present in database
Track 14 not present in database
Track 15 not present in database
Track 16 not present in database
Track 17 not present in database
Track 18 not present in database
Track 19 not present in database
Track 20 not present in database
Track 21 not present in database
None of the tracks are present in the AccurateRip database
End of status report
==== Log checksum 372F73203A8C965FAC95C13BCB3E70ECABD79AFB8E228DFE60A3C5954656AAA6 ====

Содержание индексной карты (.CUE)

REM GENRE Classical
REM DATE 2015
REM DISCID 3112AF15
REM COMMENT "ExactAudioCopy v1.1"
PERFORMER "Various Artists"
TITLE "Die Hit Giganten Best of Klassik CD1"
FILE "Various Artists - Die Hit Giganten Best of Klassik CD1.flac" WAVE
TRACK 01 AUDIO
TITLE "Fortuna Imperatrix Mundi : O Fortuna - London Symphony Chorus / Boy's Choir O..."
PERFORMER "Various Artists"
INDEX 01 00:00:00
TRACK 02 AUDIO
TITLE "Die Walkure: Walkurenritt (Live) - Orchester Der Tiroler Festspiele"
PERFORMER "Various Artists"
INDEX 00 02:48:24
INDEX 01 02:50:10
TRACK 03 AUDIO
TITLE "Violin Concerto No. 4 In F Minor, Rv 297, 'L'inverno' : I. Allegro Non Molto ..."
PERFORMER "Various Artists"
INDEX 00 08:05:54
INDEX 01 08:09:05
TRACK 04 AUDIO
TITLE "Iii. Alla Turca. Allegretto"
PERFORMER "Various Artists"
INDEX 00 11:37:00
INDEX 01 11:39:21
TRACK 05 AUDIO
TITLE "Iii. Poco Allegretto - Ndr Sinfonieorchester"
PERFORMER "Various Artists"
INDEX 00 15:21:17
INDEX 01 15:23:57
TRACK 06 AUDIO
TITLE "Sabre Dance - Boston Pops Orchestra"
PERFORMER "Various Artists"
INDEX 00 21:05:06
INDEX 01 21:08:73
TRACK 07 AUDIO
TITLE "In The Hall Of The Mountain King - Philadelphia Orchestra, The"
PERFORMER "Various Artists"
INDEX 00 23:32:28
INDEX 01 23:35:13
TRACK 08 AUDIO
TITLE "Vii. Waltz Ii - Radio-Sinfonie-Orchester Frankfurt"
PERFORMER "Various Artists"
INDEX 00 26:23:70
INDEX 01 26:27:45
TRACK 09 AUDIO
TITLE "Hungarian Dance No. 5 In G Minor - London Festival Orchestra"
PERFORMER "Various Artists"
INDEX 00 30:18:50
INDEX 01 30:20:56
TRACK 10 AUDIO
TITLE "Acte 2 : Tango - Le Sage, Eric"
PERFORMER "Various Artists"
INDEX 00 32:41:26
INDEX 01 32:44:09
TRACK 11 AUDIO
TITLE "Allegro - Orchestra Da Camera Italiana"
PERFORMER "Various Artists"
INDEX 00 34:28:00
INDEX 01 34:30:63
TRACK 12 AUDIO
TITLE "No. 12, Divertissement: Dance Of The Flutes - Orchestra Of The Royal Opera Ho..."
PERFORMER "Various Artists"
INDEX 00 38:14:33
INDEX 01 38:17:36
TRACK 13 AUDIO
TITLE "Valse Lente - Orchestra Of The Royal Opera House, Covent Garden, The"
PERFORMER "Various Artists"
INDEX 00 40:50:62
INDEX 01 40:53:26
TRACK 14 AUDIO
TITLE "Ii. Tempo Di Valse - Munchner Philharmoniker"
PERFORMER "Various Artists"
INDEX 00 42:59:54
INDEX 01 43:01:47
TRACK 15 AUDIO
TITLE "Ebben?... Ne Andro Lontana - Munchner Rundfunkorchester / Chor Des Bayerische..."
PERFORMER "Various Artists"
INDEX 00 49:55:20
INDEX 01 49:59:02
TRACK 16 AUDIO
TITLE "Liebestraum No. 3 - Boston Pops Orchestra"
PERFORMER "Various Artists"
INDEX 00 53:48:29
INDEX 01 53:52:17
TRACK 17 AUDIO
TITLE "Pavane Pour Une Infante Defunte, M. 19 - Chicago Symphony Orchestra"
PERFORMER "Various Artists"
INDEX 00 58:05:04
INDEX 01 58:07:18
TRACK 18 AUDIO
TITLE "V. Love Theme - Filarmonica Della Scala"
PERFORMER "Various Artists"
INDEX 00 64:35:01
INDEX 01 64:38:43
TRACK 19 AUDIO
TITLE "Io Sono Docile - Metropolitan Opera Chorus / Metropolitan Opera Orchestra"
PERFORMER "Various Artists"
INDEX 00 67:28:30
INDEX 01 67:32:16
TRACK 20 AUDIO
TITLE "Lacrimosa - Chor Des Bayerischen Rundfunks / Symphonieorchester Des Bayerisch..."
PERFORMER "Various Artists"
INDEX 00 71:24:33
INDEX 01 71:29:07
TRACK 21 AUDIO
TITLE "Ave Maria, D. 839 - Vienna Symphony Orchestra"
PERFORMER "Various Artists"
INDEX 00 74:44:37
INDEX 01 74:49:16

DR log

foobar2000 1.1.10 / Dynamic Range Meter 1.1.1
log date: 2015-12-23 11:33:53
--------------------------------------------------------------------------------
Analyzed: Various Artists / Die Hit Giganten Best of Klassik CD1
--------------------------------------------------------------------------------
DR Peak RMS Duration Track
--------------------------------------------------------------------------------
DR8 -0.08 dB -12.35 dB 2:50 ?-Fortuna Imperatrix Mundi : O Fortuna - London Symphony Chorus / Boy's Choir O...
DR7 -1.06 dB -11.57 dB 5:19 ?-Die Walkure: Walkurenritt (Live) - Orchester Der Tiroler Festspiele
DR9 -4.18 dB -18.93 dB 3:30 ?-Violin Concerto No. 4 In F Minor, Rv 297, 'L'inverno' : I. Allegro Non Molto ...
DR12 -1.15 dB -17.60 dB 3:44 ?-Iii. Alla Turca. Allegretto
DR12 -0.32 dB -16.61 dB 5:45 ?-Iii. Poco Allegretto - Ndr Sinfonieorchester
DR6 -2.30 dB -10.68 dB 2:26 ?-Sabre Dance - Boston Pops Orchestra
DR7 -0.08 dB -12.71 dB 2:52 ?-In The Hall Of The Mountain King - Philadelphia Orchestra, The
DR11 -0.08 dB -14.83 dB 3:53 ?-Vii. Waltz Ii - Radio-Sinfonie-Orchester Frankfurt
DR9 -1.00 dB -13.40 dB 2:23 ?-Hungarian Dance No. 5 In G Minor - London Festival Orchestra
DR11 -4.82 dB -19.83 dB 1:47 ?-Acte 2 : Tango - Le Sage, Eric
DR12 -1.01 dB -16.76 dB 3:47 ?-Allegro - Orchestra Da Camera Italiana
DR12 -0.08 dB -16.32 dB 2:36 ?-No. 12, Divertissement: Dance Of The Flutes - Orchestra Of The Royal Opera Ho...
DR12 -0.08 dB -16.22 dB 2:08 ?-Valse Lente - Orchestra Of The Royal Opera House, Covent Garden, The
DR11 -1.51 dB -16.63 dB 6:57 ?-Ii. Tempo Di Valse - Munchner Philharmoniker
DR10 -0.08 dB -15.49 dB 3:53 ?-Ebben?... Ne Andro Lontana - Munchner Rundfunkorchester / Chor Des Bayerische...
DR10 -0.08 dB -15.43 dB 4:15 ?-Liebestraum No. 3 - Boston Pops Orchestra
DR12 -2.63 dB -19.97 dB 6:31 ?-Pavane Pour Une Infante Defunte, M. 19 - Chicago Symphony Orchestra
DR11 -0.09 dB -16.98 dB 2:54 ?-V. Love Theme - Filarmonica Della Scala
DR8 -2.24 dB -14.54 dB 3:57 ?-Io Sono Docile - Metropolitan Opera Chorus / Metropolitan Opera Orchestra
DR8 -0.08 dB -12.74 dB 3:20 ?-Lacrimosa - Chor Des Bayerischen Rundfunks / Symphonieorchester Des Bayerisch...
DR13 -0.08 dB -17.77 dB 4:54 ?-Ave Maria, D. 839 - Vienna Symphony Orchestra
--------------------------------------------------------------------------------
Number of tracks: 21
Official DR value: DR10
Samplerate: 44100 Hz
Channels: 2
Bits per sample: 16
Bitrate: 695 kbps
Codec: FLAC
================================================================================

CD 2 01:20:02

01. Overture – Chor Der Wiener Staatsoper / Wiener Sängerknaben, Die / Wiener Philharmoniker
02. No. 8 In G Minor. Presto – Philharmonia Orchestra, The
03. The Carnival Of The Animals: Aquarium – Boston Pops Orchestra
04. Iii. Clair De Lune – Boston Pops Orchestra
05. William Tell Overture – Boston Pops Orchestra
06. Flight Of The Bumblebee – London Symphony Orchestra
07. Act Ii : Un Bel Di Vedremo – New Philharmonia Orchestra
08. No. 13 Dance Of The Knights – Orchestra Of The Royal Opera House, Covent Garden, The
09. Scorrende Unite – Solti, Sir Georg / Rca Italiana Opera Chorus / Rca Italiana Opera Orchestra
10. Prelude: Morning Mood – Oslo Philharmonic Chorus, Oslo Philharmonic Chorus / Oslo Philharmonic Orchestra
11. Turandot, Act Iii: ‚Nessun Dorma‘ – Potts, Paul / London Symphony Orchestra
12. No. 1 In G Minor – Enescu, George & Bucharest Philharmonic Orchestra
13. Comptine D’un Autre Ete – (Keine Angaben)
14. Lakme: Dome Epais Le Jasmin (Flower Duet) – Royal Liverpool Philharmonic Orchestra And Choir / King’s Division Normandy Band
15. No. 7 Valse – Orchestra Of The Royal Opera House, Covent Garden, The
16. Menuet And Badinerie – I Solisti Di Zagreb
17. Piano Sonata No. 14 In C-Sharp Minor, Op. 27, No. 2, ‚Mondschein‘: I. Adagio Sostenuto
18. Hijo De La Luna
19. Fantasia On Greensleeves – New York Philharmonic Orchestra
20. Gymnopedie No. 1 – National Philharmonic Orchestra
21. Bolero, Pt. 2 – New York Philharmonic Orchestra

Лог создания рипа

Exact Audio Copy V1.1 from 23. June 2015
EAC extraction logfile from 22. November 2015, 17:13
Various Artists / Die Hit Giganten Best of Klassik CD2
Used drive : PIONEER BD-RW BDR-209D Adapter: 0 ID: 4
Read mode : Secure
Utilize accurate stream : Yes
Defeat audio cache : Yes
Make use of C2 pointers : No
Read offset correction : 667
Overread into Lead-In and Lead-Out : No
Fill up missing offset samples with silence : Yes
Delete leading and trailing silent blocks : No
Null samples used in CRC calculations : Yes
Used interface : Installed external ASPI interface
Used output format : User Defined Encoder
Selected bitrate : 768 kBit/s
Quality : High
Add ID3 tag : No
Command line compressor : C:\Program Files (x86)\Exact Audio Copy\FLAC\FLAC.EXE
Additional command line options : -6 -V -T "ARTIST=%artist%" -T "TITLE=%title%" -T "ALBUM=%albumtitle%" -T "DATE=%year%" -T "TRACKNUMBER=%tracknr%" -T "GENRE=%genre%" -T "COMMENT=%comment%" -T "BAND=%albuminterpret%" -T "ALBUMARTIST=%albuminterpret%" -T "COMPOSER=%composer%" %haslyrics%--tag-from-file=LYRICS="%lyricsfile%"%haslyrics% -T "DISCNUMBER=%cdnumber%" -T "TOTALDISCS=%totalcds%" -T "TOTALTRACKS=%numtracks%" %hascover%--picture="%coverfile%"%hascover% %source% -o %dest%
TOC of the extracted CD
Track | Start | Length | Start sector | End sector
---------------------------------------------------------
1 | 0:00.00 | 3:28.19 | 0 | 15618
2 | 3:28.19 | 4:27.01 | 15619 | 35644
3 | 7:55.20 | 2:26.74 | 35645 | 46668
4 | 10:22.19 | 4:30.73 | 46669 | 66991
5 | 14:53.17 | 3:07.52 | 66992 | 81068
6 | 18:00.69 | 1:26.25 | 81069 | 87543
7 | 19:27.19 | 4:23.60 | 87544 | 107328
8 | 23:51.04 | 5:46.05 | 107329 | 133283
9 | 29:37.09 | 1:48.70 | 133284 | 141453
10 | 31:26.04 | 4:19.25 | 141454 | 160903
11 | 35:45.29 | 2:56.56 | 160904 | 174159
12 | 38:42.10 | 3:13.49 | 174160 | 188683
13 | 41:55.59 | 2:20.67 | 188684 | 199250
14 | 44:16.51 | 1:33.66 | 199251 | 206291
15 | 45:50.42 | 5:07.73 | 206292 | 229389
16 | 50:58.40 | 2:43.01 | 229390 | 241615
17 | 53:41.41 | 6:03.72 | 241616 | 268912
18 | 59:45.38 | 3:27.32 | 268913 | 284469
19 | 63:12.70 | 5:02.40 | 284470 | 307159
20 | 68:15.35 | 3:44.64 | 307160 | 324023
21 | 72:00.24 | 8:01.69 | 324024 | 360167
Range status and errors
Selected range
Filename E:\MUSIC\Various Artists - Die Hit Giganten Best of Klassik CD2.wav
Peak level 99.0 %
Extraction speed 8.6 X
Range quality 100.0 %
Test CRC 95F9FC44
Copy CRC 95F9FC44
Copy OK
No errors occurred
AccurateRip summary
Track 1 not present in database
Track 2 not present in database
Track 3 not present in database
Track 4 not present in database
Track 5 not present in database
Track 6 not present in database
Track 7 not present in database
Track 8 not present in database
Track 9 not present in database
Track 10 not present in database
Track 11 not present in database
Track 12 not present in database
Track 13 not present in database
Track 14 not present in database
Track 15 not present in database
Track 16 not present in database
Track 17 not present in database
Track 18 not present in database
Track 19 not present in database
Track 20 not present in database
Track 21 not present in database
None of the tracks are present in the AccurateRip database
End of status report
==== Log checksum 8C018056593624540E96B82F884E7D5B24ADF7D0F5D1A4FBB8B4EED65DD62EB1 ====

Содержание индексной карты (.CUE)

REM GENRE Classcal
REM DATE 2015
REM DISCID 3F12C215
REM COMMENT "ExactAudioCopy v1.1"
PERFORMER "Various Artists"
TITLE "Die Hit Giganten Best of Klassik CD2"
FILE "Various Artists - Die Hit Giganten Best of Klassik CD2.flac" WAVE
TRACK 01 AUDIO
TITLE "Overture - Chor Der Wiener Staatsoper / Wiener Sangerknaben, Die / Wiener Phi..."
PERFORMER "Various Artists"
INDEX 01 00:00:00
TRACK 02 AUDIO
TITLE "No. 8 In G Minor. Presto - Philharmonia Orchestra, The"
PERFORMER "Various Artists"
INDEX 00 03:25:26
INDEX 01 03:28:19
TRACK 03 AUDIO
TITLE "The Carnival Of The Animals: Aquarium - Boston Pops Orchestra"
PERFORMER "Various Artists"
INDEX 00 07:52:25
INDEX 01 07:55:20
TRACK 04 AUDIO
TITLE "Iii. Clair De Lune - Boston Pops Orchestra"
PERFORMER "Various Artists"
INDEX 00 10:19:59
INDEX 01 10:22:19
TRACK 05 AUDIO
TITLE "William Tell Overture - Boston Pops Orchestra"
PERFORMER "Various Artists"
INDEX 00 14:50:34
INDEX 01 14:53:17
TRACK 06 AUDIO
TITLE "Flight Of The Bumblebee - London Symphony Orchestra"
PERFORMER "Various Artists"
INDEX 00 17:57:28
INDEX 01 18:00:69
TRACK 07 AUDIO
TITLE "Act Ii : Un Bel Di Vedremo - New Philharmonia Orchestra"
PERFORMER "Various Artists"
INDEX 00 19:25:09
INDEX 01 19:27:19
TRACK 08 AUDIO
TITLE "No. 13 Dance Of The Knights - Orchestra Of The Royal Opera House, Covent Gard..."
PERFORMER "Various Artists"
INDEX 00 23:48:51
INDEX 01 23:51:04
TRACK 09 AUDIO
TITLE "Scorrende Unite - Solti, Sir Georg / Rca Italiana Opera Chorus / Rca Italiana..."
PERFORMER "Various Artists"
INDEX 00 29:34:21
INDEX 01 29:37:09
TRACK 10 AUDIO
TITLE "Prelude: Morning Mood - Oslo Philharmonic Chorus, Oslo Philharmonic Chorus / ..."
PERFORMER "Various Artists"
INDEX 00 31:22:47
INDEX 01 31:26:04
TRACK 11 AUDIO
TITLE "Turandot, Act Iii: 'Nessun Dorma' - Potts, Paul / London Symphony Orchestra"
PERFORMER "Various Artists"
INDEX 00 35:43:37
INDEX 01 35:45:29
TRACK 12 AUDIO
TITLE "No. 1 In G Minor - Enescu, George & Bucharest Philharmonic Orchestra"
PERFORMER "Various Artists"
INDEX 00 38:39:09
INDEX 01 38:42:10
TRACK 13 AUDIO
TITLE "Comptine D'un Autre Ete - (Keine Angaben)"
PERFORMER "Various Artists"
INDEX 00 41:52:31
INDEX 01 41:55:59
TRACK 14 AUDIO
TITLE "Lakme: Dome Epais Le Jasmin (Flower Duet) - Royal Liverpool Philharmonic Orch..."
PERFORMER "Various Artists"
INDEX 00 44:14:40
INDEX 01 44:16:51
TRACK 15 AUDIO
TITLE "No. 7 Valse - Orchestra Of The Royal Opera House, Covent Garden, The"
PERFORMER "Various Artists"
INDEX 00 45:47:67
INDEX 01 45:50:42
TRACK 16 AUDIO
TITLE "Menuet And Badinerie - I Solisti Di Zagreb"
PERFORMER "Various Artists"
INDEX 00 50:55:40
INDEX 01 50:58:40
TRACK 17 AUDIO
TITLE "Piano Sonata No. 14 In C-Sharp Minor, Op. 27, No. 2, 'Mondschein': I. Adagio ..."
PERFORMER "Various Artists"
INDEX 00 53:39:21
INDEX 01 53:41:41
TRACK 18 AUDIO
TITLE "Hijo De La Luna"
PERFORMER "Various Artists"
INDEX 00 59:43:11
INDEX 01 59:45:38
TRACK 19 AUDIO
TITLE "Fantasia On Greensleeves - New York Philharmonic Orchestra"
PERFORMER "Various Artists"
INDEX 00 63:09:54
INDEX 01 63:12:70
TRACK 20 AUDIO
TITLE "Gymnopedie No. 1 - National Philharmonic Orchestra"
PERFORMER "Various Artists"
INDEX 00 68:13:19
INDEX 01 68:15:35
TRACK 21 AUDIO
TITLE "Bolero, Pt. 2 - New York Philharmonic Orchestra"
PERFORMER "Various Artists"
INDEX 00 71:56:55
INDEX 01 72:00:24

DR log

foobar2000 1.1.10 / Dynamic Range Meter 1.1.1
log date: 2015-12-23 12:02:08
--------------------------------------------------------------------------------
Analyzed: Various Artists / Die Hit Giganten Best of Klassik CD2
--------------------------------------------------------------------------------
DR Peak RMS Duration Track
--------------------------------------------------------------------------------
DR9 -0.72 dB -13.65 dB 3:28 ?-Overture - Chor Der Wiener Staatsoper / Wiener Sangerknaben, Die / Wiener Phi...
DR10 -0.09 dB -14.46 dB 4:27 ?-No. 8 In G Minor. Presto - Philharmonia Orchestra, The
DR11 -2.77 dB -18.53 dB 2:27 ?-The Carnival Of The Animals: Aquarium - Boston Pops Orchestra
DR10 -2.48 dB -17.08 dB 4:31 ?-Iii. Clair De Lune - Boston Pops Orchestra
DR9 -0.08 dB -12.39 dB 3:08 ?-William Tell Overture - Boston Pops Orchestra
DR10 -0.08 dB -15.18 dB 1:26 ?-Flight Of The Bumblebee - London Symphony Orchestra
DR9 -0.08 dB -15.06 dB 4:24 ?-Act Ii : Un Bel Di Vedremo - New Philharmonia Orchestra
DR10 -0.08 dB -13.84 dB 5:46 ?-No. 13 Dance Of The Knights - Orchestra Of The Royal Opera House, Covent Gard...
DR9 -0.08 dB -14.36 dB 1:49 ?-Scorrende Unite - Solti, Sir Georg / Rca Italiana Opera Chorus / Rca Italiana...
DR11 -0.08 dB -16.03 dB 4:19 ?-Prelude: Morning Mood - Oslo Philharmonic Chorus, Oslo Philharmonic Chorus / ...
DR7 -0.20 dB -12.59 dB 2:57 ?-Turandot, Act Iii: 'Nessun Dorma' - Potts, Paul / London Symphony Orchestra
DR9 -0.57 dB -13.32 dB 3:14 ?-No. 1 In G Minor - Enescu, George & Bucharest Philharmonic Orchestra
DR13 -4.25 dB -21.01 dB 2:21 ?-Comptine D'un Autre Ete - (Keine Angaben)
DR10 -1.53 dB -16.14 dB 1:34 ?-Lakme: Dome Epais Le Jasmin (Flower Duet) - Royal Liverpool Philharmonic Orch...
DR10 -0.08 dB -14.50 dB 5:08 ?-No. 7 Valse - Orchestra Of The Royal Opera House, Covent Garden, The
DR13 -2.20 dB -18.15 dB 2:43 ?-Menuet And Badinerie - I Solisti Di Zagreb
DR14 -2.09 dB -20.87 dB 6:04 ?-Piano Sonata No. 14 In C-Sharp Minor, Op. 27, No. 2, 'Mondschein': I. Adagio ...
DR12 -0.08 dB -16.40 dB 3:27 ?-Hijo De La Luna
DR14 -0.10 dB -20.81 dB 5:03 ?-Fantasia On Greensleeves - New York Philharmonic Orchestra
DR13 -1.49 dB -20.09 dB 3:45 ?-Gymnopedie No. 1 - National Philharmonic Orchestra
DR10 -0.08 dB -12.35 dB 8:02 ?-Bolero, Pt. 2 - New York Philharmonic Orchestra
--------------------------------------------------------------------------------
Number of tracks: 21
Official DR value: DR11
Samplerate: 44100 Hz
Channels: 2
Bits per sample: 16
Bitrate: 740 kbps
Codec: FLAC
================================================================================

CD 3 01:21:41

01. Sonnenaufgang – Chicago Symphony Orchestra
02. Hallelujah! – Royal Philharmonic Orchestra / Royal Philharmonic Chorus
03. Va, Pensiero, Sull’ali Dorate (Chorus Of The Hebrew Slaves) – Rca Victor Orchestra / Shaw, Robert, Chorale
04. Orchestral Suite No. 3 In D Major, Bwv 1068: Ii. Air – English Chamber Orchestra
05. Ma Vlast: Ii. Vltava, ‚The Moldau‘ – Bamberger Symphoniker
06. Barcarolle – Boston Pops Orchestra
07. No. 29 Scene Finale – Orchestra Of The Royal Opera House, Covent Garden, The
08. Farandole – Boston Pops Orchestra
09. Violin Concerto No. 2 In G Minor, Rv 315, ‚L’estate‘ : Iii. Presto – Moscow Virtuosi
10. Ii. Romance. Andante – New York Philharmonic Orchestra
11. String Quintet In E Major, Op. 13, No. 5: Iii. Minuetto
12. Rondeau – Danse Du Calumet De La Paix Executee Par Les Sauvages – Collegium Aureum
13. Noi Siamo Zingarelle – Rca Italiana Opera Orchestra And Chorus
14. Canon In D Major For Strings And Basso Continuo, Pwc 37, T. 337, Pc 358 – Baroque Chamber Orchestra
15. Serenade, D. 957, No. 4 – Philadelphia Orchestra, The
16. Moon River (From ‚Breakfast At Tiffany’s‘)
17. Ii. Adagio Cantabile
18. Waltz – Rca Victor Symphony Orchestra
19. Palladio: I. Allegretto – London Symphony Orchestra
20. Out Of Africa – Barry, John
21. Für Elise, Woo 59

Лог создания рипа

Exact Audio Copy V1.1 from 23. June 2015
EAC extraction logfile from 22. November 2015, 17:41
Various Artists / Die Hit Giganten Best of Klassik CD3
Used drive : PIONEER BD-RW BDR-209D Adapter: 0 ID: 4
Read mode : Secure
Utilize accurate stream : Yes
Defeat audio cache : Yes
Make use of C2 pointers : No
Read offset correction : 667
Overread into Lead-In and Lead-Out : No
Fill up missing offset samples with silence : Yes
Delete leading and trailing silent blocks : No
Null samples used in CRC calculations : Yes
Used interface : Installed external ASPI interface
Used output format : User Defined Encoder
Selected bitrate : 768 kBit/s
Quality : High
Add ID3 tag : No
Command line compressor : C:\Program Files (x86)\Exact Audio Copy\FLAC\FLAC.EXE
Additional command line options : -6 -V -T "ARTIST=%artist%" -T "TITLE=%title%" -T "ALBUM=%albumtitle%" -T "DATE=%year%" -T "TRACKNUMBER=%tracknr%" -T "GENRE=%genre%" -T "COMMENT=%comment%" -T "BAND=%albuminterpret%" -T "ALBUMARTIST=%albuminterpret%" -T "COMPOSER=%composer%" %haslyrics%--tag-from-file=LYRICS="%lyricsfile%"%haslyrics% -T "DISCNUMBER=%cdnumber%" -T "TOTALDISCS=%totalcds%" -T "TOTALTRACKS=%numtracks%" %hascover%--picture="%coverfile%"%hascover% %source% -o %dest%
TOC of the extracted CD
Track | Start | Length | Start sector | End sector
---------------------------------------------------------
1 | 0:00.00 | 1:31.68 | 0 | 6892
2 | 1:31.68 | 3:35.27 | 6893 | 23044
3 | 5:07.20 | 4:54.02 | 23045 | 45096
4 | 10:01.22 | 5:35.44 | 45097 | 70265
5 | 15:36.66 | 3:00.27 | 70266 | 83792
6 | 18:37.18 | 3:36.62 | 83793 | 100054
7 | 22:14.05 | 5:15.32 | 100055 | 123711
8 | 27:29.37 | 2:52.27 | 123712 | 136638
9 | 30:21.64 | 2:38.27 | 136639 | 148515
10 | 33:00.16 | 6:32.49 | 148516 | 177964
11 | 39:32.65 | 3:25.39 | 177965 | 193378
12 | 42:58.29 | 1:46.69 | 193379 | 201397
13 | 44:45.23 | 2:55.66 | 201398 | 214588
14 | 47:41.14 | 4:49.52 | 214589 | 236315
15 | 52:30.66 | 4:08.71 | 236316 | 254986
16 | 56:39.62 | 4:04.60 | 254987 | 273346
17 | 60:44.47 | 5:03.21 | 273347 | 296092
18 | 65:47.68 | 4:30.30 | 296093 | 316372
19 | 70:18.23 | 3:45.57 | 316373 | 333304
20 | 74:04.05 | 4:30.26 | 333305 | 353580
21 | 78:34.31 | 3:06.44 | 353581 | 367574
Range status and errors
Selected range
Filename E:\MUSIC\Various Artists - Die Hit Giganten Best of Klassik CD3.wav
Peak level 99.0 %
Extraction speed 8.6 X
Range quality 99.9 %
Test CRC FF0539D1
Copy CRC FF0539D1
Copy OK
No errors occurred
AccurateRip summary
Track 1 not present in database
Track 2 not present in database
Track 3 not present in database
Track 4 not present in database
Track 5 not present in database
Track 6 not present in database
Track 7 not present in database
Track 8 not present in database
Track 9 not present in database
Track 10 not present in database
Track 11 not present in database
Track 12 not present in database
Track 13 not present in database
Track 14 not present in database
Track 15 not present in database
Track 16 not present in database
Track 17 not present in database
Track 18 not present in database
Track 19 not present in database
Track 20 not present in database
Track 21 not present in database
None of the tracks are present in the AccurateRip database
End of status report
==== Log checksum 17E12C425AD15DCB12EB961400A3E239EDBB51FD90C960DE263F935AB610C1D3 ====

Содержание индексной карты (.CUE)

REM GENRE Classical
REM DATE 2015
REM DISCID 34132515
REM COMMENT "ExactAudioCopy v1.1"
PERFORMER "Various Artists"
TITLE "Die Hit Giganten Best of Klassik CD3"
FILE "Various Artists - Die Hit Giganten Best of Klassik CD3.flac" WAVE
TRACK 01 AUDIO
TITLE "Sonnenaufgang - Chicago Symphony Orchestra"
PERFORMER "Various Artists"
INDEX 01 00:00:00
TRACK 02 AUDIO
TITLE "Hallelujah! - Royal Philharmonic Orchestra / Royal Philharmonic Chorus"
PERFORMER "Various Artists"
INDEX 00 01:30:07
INDEX 01 01:31:68
TRACK 03 AUDIO
TITLE "Va, Pensiero, Sull'ali Dorate (Chorus Of The Hebrew Slaves) - Rca Victor Orch..."
PERFORMER "Various Artists"
INDEX 00 05:04:54
INDEX 01 05:07:20
TRACK 04 AUDIO
TITLE "Orchestral Suite No. 3 In D Major, Bwv 1068: Ii. Air - English Chamber Orchestra"
PERFORMER "Various Artists"
INDEX 00 09:59:35
INDEX 01 10:01:22
TRACK 05 AUDIO
TITLE "Ma Vlast: Ii. Vltava, 'The Moldau' - Bamberger Symphoniker"
PERFORMER "Various Artists"
INDEX 00 15:35:15
INDEX 01 15:36:66
TRACK 06 AUDIO
TITLE "Barcarolle - Boston Pops Orchestra"
PERFORMER "Various Artists"
INDEX 00 18:35:21
INDEX 01 18:37:18
TRACK 07 AUDIO
TITLE "No. 29 Scene Finale - Orchestra Of The Royal Opera House, Covent Garden, The"
PERFORMER "Various Artists"
INDEX 00 22:11:48
INDEX 01 22:14:05
TRACK 08 AUDIO
TITLE "Farandole - Boston Pops Orchestra"
PERFORMER "Various Artists"
INDEX 00 27:26:02
INDEX 01 27:29:37
TRACK 09 AUDIO
TITLE "Violin Concerto No. 2 In G Minor, Rv 315, 'L'estate' : Iii. Presto - Moscow V..."
PERFORMER "Various Artists"
INDEX 00 30:20:44
INDEX 01 30:21:64
TRACK 10 AUDIO
TITLE "Ii. Romance. Andante - New York Philharmonic Orchestra"
PERFORMER "Various Artists"
INDEX 00 32:58:47
INDEX 01 33:00:16
TRACK 11 AUDIO
TITLE "String Quintet In E Major, Op. 13, No. 5: Iii. Minuetto"
PERFORMER "Various Artists"
INDEX 00 39:30:40
INDEX 01 39:32:65
TRACK 12 AUDIO
TITLE "Rondeau - Danse Du Calumet De La Paix Executee Par Les Sauvages - Collegium A..."
PERFORMER "Various Artists"
INDEX 00 42:55:44
INDEX 01 42:58:29
TRACK 13 AUDIO
TITLE "Noi Siamo Zingarelle - Rca Italiana Opera Orchestra And Chorus"
PERFORMER "Various Artists"
INDEX 00 44:42:49
INDEX 01 44:45:23
TRACK 14 AUDIO
TITLE "Canon In D Major For Strings And Basso Continuo, Pwc 37, T. 337, Pc 358 - Bar..."
PERFORMER "Various Artists"
INDEX 00 47:38:50
INDEX 01 47:41:14
TRACK 15 AUDIO
TITLE "Serenade, D. 957, No. 4 - Philadelphia Orchestra, The"
PERFORMER "Various Artists"
INDEX 00 52:27:27
INDEX 01 52:30:66
TRACK 16 AUDIO
TITLE "Moon River (From 'Breakfast At Tiffany's')"
PERFORMER "Various Artists"
INDEX 00 56:37:68
INDEX 01 56:39:62
TRACK 17 AUDIO
TITLE "Ii. Adagio Cantabile"
PERFORMER "Various Artists"
INDEX 00 60:42:08
INDEX 01 60:44:47
TRACK 18 AUDIO
TITLE "Waltz - Rca Victor Symphony Orchestra"
PERFORMER "Various Artists"
INDEX 00 65:44:71
INDEX 01 65:47:68
TRACK 19 AUDIO
TITLE "Palladio: I. Allegretto - London Symphony Orchestra"
PERFORMER "Various Artists"
INDEX 00 70:14:67
INDEX 01 70:18:23
TRACK 20 AUDIO
TITLE "Out Of Africa - Barry, John"
PERFORMER "Various Artists"
INDEX 00 74:01:62
INDEX 01 74:04:05
TRACK 21 AUDIO
TITLE "Fur Elise, Woo 59"
PERFORMER "Various Artists"
INDEX 00 78:32:32
INDEX 01 78:34:31

DR log

foobar2000 1.1.10 / Dynamic Range Meter 1.1.1
log date: 2015-12-23 12:03:32
--------------------------------------------------------------------------------
Analyzed: Various Artists / Die Hit Giganten Best of Klassik CD3
--------------------------------------------------------------------------------
DR Peak RMS Duration Track
--------------------------------------------------------------------------------
DR7 -0.09 dB -10.46 dB 1:32 ?-Sonnenaufgang - Chicago Symphony Orchestra
DR8 -0.08 dB -10.31 dB 3:35 ?-Hallelujah! - Royal Philharmonic Orchestra / Royal Philharmonic Chorus
DR9 -0.08 dB -13.53 dB 4:54 ?-Va, Pensiero, Sull'ali Dorate (Chorus Of The Hebrew Slaves) - Rca Victor Orch...
DR13 -3.32 dB -21.12 dB 5:36 ?-Orchestral Suite No. 3 In D Major, Bwv 1068: Ii. Air - English Chamber Orchestra
DR9 -0.58 dB -12.65 dB 3:00 ?-Ma Vlast: Ii. Vltava, 'The Moldau' - Bamberger Symphoniker
DR11 -1.38 dB -16.16 dB 3:37 ?-Barcarolle - Boston Pops Orchestra
DR8 -0.08 dB -11.40 dB 5:15 ?-No. 29 Scene Finale - Orchestra Of The Royal Opera House, Covent Garden, The
DR8 -1.03 dB -12.86 dB 2:52 ?-Farandole - Boston Pops Orchestra
DR10 -2.05 dB -15.66 dB 2:38 ?-Violin Concerto No. 2 In G Minor, Rv 315, 'L'estate' : Iii. Presto - Moscow V...
DR13 -0.09 dB -18.68 dB 6:33 ?-Ii. Romance. Andante - New York Philharmonic Orchestra
DR14 -1.18 dB -19.71 dB 3:26 ?-String Quintet In E Major, Op. 13, No. 5: Iii. Minuetto
DR10 -2.41 dB -14.39 dB 1:47 ?-Rondeau - Danse Du Calumet De La Paix Executee Par Les Sauvages - Collegium A...
DR10 -1.26 dB -15.61 dB 2:56 ?-Noi Siamo Zingarelle - Rca Italiana Opera Orchestra And Chorus
DR9 -4.39 dB -17.02 dB 4:50 ?-Canon In D Major For Strings And Basso Continuo, Pwc 37, T. 337, Pc 358 - Bar...
DR11 -0.73 dB -17.51 dB 4:09 ?-Serenade, D. 957, No. 4 - Philadelphia Orchestra, The
DR13 -2.13 dB -17.64 dB 4:05 ?-Moon River (From 'Breakfast At Tiffany's')
DR16 -1.08 dB -22.14 dB 5:03 ?-Ii. Adagio Cantabile
DR7 -1.93 dB -11.72 dB 4:30 ?-Waltz - Rca Victor Symphony Orchestra
DR11 -1.35 dB -17.64 dB 3:46 ?-Palladio: I. Allegretto - London Symphony Orchestra
DR11 -0.14 dB -16.79 dB 4:30 ?-Out Of Africa - Barry, John
DR13 -2.63 dB -20.39 dB 3:07 ?-Fur Elise, Woo 59
--------------------------------------------------------------------------------
Number of tracks: 21
Official DR value: DR11
Samplerate: 44100 Hz
Channels: 2
Bits per sample: 16
Bitrate: 742 kbps
Codec: FLAC
================================================================================



Показать сообщения:    

Текущее время: 08-Дек 19:12

Часовой пояс: UTC + 3


Вы не можете начинать темы
Вы не можете отвечать на сообщения
Вы не можете редактировать свои сообщения
Вы не можете удалять свои сообщения
Вы не можете голосовать в опросах
Вы не можете прикреплять файлы к сообщениям
Вы не можете скачивать файлы