(Piano cover) Rammstein - Klavier (Clemens Potzsch, piano) - 2015, FLAC (tracks+.cue) lossless


 

[Цитировать]

Rammstein — Klavier- -Piano cover • 2015 • lossless • FLAC • tracks+.cue • 00:52:49 • what.cd-01. Fruhling in Paris |4:09|
02. Feuer Und Wasser |3:53|
03. Nebel |4:34|
04. Sonne |3:53|
05. Klavier |4:03|
06. Wilder Wein |3:31|
07. Ohne Dich |4:31|
08. Ein Lied |3:41|
09. Roter Sand |3:16|
10. Engel |4:16|
11. Seemann |4:35|
12. Donaukinder |3:54|
13. Mein Herz Brennt |4:32|
-Clemens Christian Pötzsch - piano-В честь празднования 21-й годовщины группы, Rammstein выпускает 'Klavier (Edition Rammstein 2015)' - 80-страничную книгу с нотами для фортепиано к 13-ти песням из 6 студийных альбомов. К книге прилагается данный диск с соответствующими композициями для соло фортепиано. Аранжировки выполнены Clemens Potzsch, Lars Kutschke, Malte Rogacki, Sven Helbig, Sven Helbig ('Mein herz brennt')-

logsfooCDtest

fooCDtect - foobar2000 + auCDtect, baralgin.
auCDtect: CD records authenticity detector, version 0.8.2
Copyright (c) 2004 Oleg Berngardt. All rights reserved.
Copyright (c) 2004 Alexander Djourik. All rights reserved.
mode: 0
===========================================
Track: 02. Feuer Und Wasser
Quality: CDDA 100%
===========================================
Track: 01. Fruhling in Paris
Quality: CDDA 100%
===========================================
Track: 04. Sonne
Quality: CDDA 100%
===========================================
Track: 03. Nebel
Quality: CDDA 100%
===========================================
Track: 05. Klavier
Quality: CDDA 100%
===========================================
Track: 08. Ein Land
Quality: CDDA 100%
===========================================
Track: 07. Ohne Dich
Quality: CDDA 100%
===========================================
Track: 09. Roter Sand
Quality: CDDA 100%
===========================================
Track: 10. Engel
Quality: CDDA 100%
===========================================
Track: 11. Seemann
Quality: CDDA 100%
===========================================
Track: 12. Donaukinder
Quality: CDDA 100%
===========================================
Track: 13. Mein Herz Brennt
Quality: MPEG 80%
===========================================
Track: 06. Wilder Wein
Quality: CDDA 100%
===========================================

cue

REM GENRE Instrumental
REM DATE 2015
REM DISCID C20C610D
REM COMMENT "ExactAudioCopy v1.0b4"
PERFORMER "Rammstein"
TITLE "Klavier"
FILE "01 Fruhling in Paris.wav" WAVE
TRACK 01 AUDIO
TITLE "Fruhling in Paris"
PERFORMER "Rammstein"
INDEX 01 00:00:00
FILE "02 Feuer Und Wasser.wav" WAVE
TRACK 02 AUDIO
TITLE "Feuer Und Wasser"
PERFORMER "Rammstein"
INDEX 01 00:00:00
FILE "03 Nebel.wav" WAVE
TRACK 03 AUDIO
TITLE "Nebel"
PERFORMER "Rammstein"
INDEX 01 00:00:00
FILE "04 Sonne.wav" WAVE
TRACK 04 AUDIO
TITLE "Sonne"
PERFORMER "Rammstein"
INDEX 01 00:00:00
FILE "05 Klavier.wav" WAVE
TRACK 05 AUDIO
TITLE "Klavier"
PERFORMER "Rammstein"
INDEX 01 00:00:00
FILE "06 Wilder Wein.wav" WAVE
TRACK 06 AUDIO
TITLE "Wilder Wein"
PERFORMER "Rammstein"
INDEX 01 00:00:00
FILE "07 Ohne Dich.wav" WAVE
TRACK 07 AUDIO
TITLE "Ohne Dich"
PERFORMER "Rammstein"
INDEX 01 00:00:00
FILE "08 Ein Land.wav" WAVE
TRACK 08 AUDIO
TITLE "Ein Land"
PERFORMER "Rammstein"
INDEX 01 00:00:00
FILE "09 Roter Sand.wav" WAVE
TRACK 09 AUDIO
TITLE "Roter Sand"
PERFORMER "Rammstein"
INDEX 01 00:00:00
FILE "10 Engel.wav" WAVE
TRACK 10 AUDIO
TITLE "Engel"
PERFORMER "Rammstein"
INDEX 01 00:00:00
FILE "11 Seemann.wav" WAVE
TRACK 11 AUDIO
TITLE "Seemann"
PERFORMER "Rammstein"
INDEX 01 00:00:00
FILE "12 Donaukinder.wav" WAVE
TRACK 12 AUDIO
TITLE "Donaukinder"
PERFORMER "Rammstein"
INDEX 01 00:00:00
FILE "13 Mein Herz Brennt.wav" WAVE
TRACK 13 AUDIO
TITLE "Mein Herz Brennt"
PERFORMER "Rammstein"
INDEX 01 00:00:00

EAC

Exact Audio Copy V1.0 beta 4 from 7. December 2014
EAC extraction logfile from 21. December 2015, 14:47
Rammstein / Klavier
Used drive : ASUS BW-12B1LT Adapter: 1 ID: 0
Read mode : Secure
Utilize accurate stream : Yes
Defeat audio cache : Yes
Make use of C2 pointers : No
Read offset correction : 6
Overread into Lead-In and Lead-Out : No
Fill up missing offset samples with silence : Yes
Delete leading and trailing silent blocks : No
Null samples used in CRC calculations : Yes
Used interface : Native Win32 interface for Win NT & 2000
Gap handling : Appended to previous track
Used output format : User Defined Encoder
Selected bitrate : 1024 kBit/s
Quality : High
Add ID3 tag : No
Command line compressor : C:\Program Files (x86)\Exact Audio Copy\Flac\flac.exe
Additional command line options : -8 -V -T "ARTIST=%artist%" -T "TITLE=%title%" -T "ALBUM=%albumtitle%" -T "DATE=%year%" -T "TRACKNUMBER=%tracknr%" -T "GENRE=%genre%" -T "PERFORMER=%albuminterpret%" -T "COMPOSER=%composer%" %haslyrics%--tag-from-file=LYRICS="%lyricsfile%"%haslyrics% -T "ALBUMARTIST=%albumartist%" -T "DISCNUMBER=%cdnumber%" -T "TOTALDISCS=%totalcds%" -T "TOTALTRACKS=%numtracks%" -T "COMMENT=%comment%" %source% -o %dest%
TOC of the extracted CD
Track | Start | Length | Start sector | End sector
---------------------------------------------------------
1 | 0:00.00 | 4:08.64 | 0 | 18663
2 | 4:08.64 | 3:52.67 | 18664 | 36130
3 | 8:01.56 | 4:34.19 | 36131 | 56699
4 | 12:36.00 | 3:53.09 | 56700 | 74183
5 | 16:29.09 | 4:03.34 | 74184 | 92442
6 | 20:32.43 | 3:31.25 | 92443 | 108292
7 | 24:03.68 | 4:30.70 | 108293 | 128612
8 | 28:34.63 | 3:41.25 | 128613 | 145212
9 | 32:16.13 | 3:16.08 | 145213 | 159920
10 | 35:32.21 | 4:16.08 | 159921 | 179128
11 | 39:48.29 | 4:35.02 | 179129 | 199755
12 | 44:23.31 | 3:53.67 | 199756 | 217297
13 | 48:17.23 | 4:31.68 | 217298 | 237690
Track 1
Filename G:\Rips\Rammstein - Klavier (2015) [FLAC]\01 Fruhling in Paris.wav
Pre-gap length 0:00:02.00
Peak level 97.9 %
Extraction speed 4.3 X
Track quality 100.0 %
Test CRC 16508C75
Copy CRC 16508C75
Track not present in AccurateRip database
Copy OK
Track 2
Filename G:\Rips\Rammstein - Klavier (2015) [FLAC]\02 Feuer Und Wasser.wav
Peak level 97.9 %
Extraction speed 4.8 X
Track quality 100.0 %
Test CRC 36E0EAE4
Copy CRC 36E0EAE4
Track not present in AccurateRip database
Copy OK
Track 3
Filename G:\Rips\Rammstein - Klavier (2015) [FLAC]\03 Nebel.wav
Peak level 97.9 %
Extraction speed 5.3 X
Track quality 100.0 %
Test CRC 3823973D
Copy CRC 3823973D
Track not present in AccurateRip database
Copy OK
Track 4
Filename G:\Rips\Rammstein - Klavier (2015) [FLAC]\04 Sonne.wav
Peak level 97.9 %
Extraction speed 5.6 X
Track quality 100.0 %
Test CRC 8433A127
Copy CRC 8433A127
Track not present in AccurateRip database
Copy OK
Track 5
Filename G:\Rips\Rammstein - Klavier (2015) [FLAC]\05 Klavier.wav
Peak level 97.9 %
Extraction speed 6.0 X
Track quality 100.0 %
Test CRC 42DB25A5
Copy CRC 42DB25A5
Track not present in AccurateRip database
Copy OK
Track 6
Filename G:\Rips\Rammstein - Klavier (2015) [FLAC]\06 Wilder Wein.wav
Peak level 97.9 %
Extraction speed 6.2 X
Track quality 100.0 %
Test CRC 6F96E3B0
Copy CRC 6F96E3B0
Track not present in AccurateRip database
Copy OK
Track 7
Filename G:\Rips\Rammstein - Klavier (2015) [FLAC]\07 Ohne Dich.wav
Peak level 97.9 %
Extraction speed 5.7 X
Track quality 99.9 %
Test CRC A6B82D6A
Copy CRC A6B82D6A
Track not present in AccurateRip database
Copy OK
Track 8
Filename G:\Rips\Rammstein - Klavier (2015) [FLAC]\08 Ein Land.wav
Peak level 83.1 %
Extraction speed 6.9 X
Track quality 100.0 %
Test CRC AC94CE61
Copy CRC AC94CE61
Track not present in AccurateRip database
Copy OK
Track 9
Filename G:\Rips\Rammstein - Klavier (2015) [FLAC]\09 Roter Sand.wav
Peak level 97.9 %
Extraction speed 7.0 X
Track quality 100.0 %
Test CRC 7F4096B8
Copy CRC 7F4096B8
Track not present in AccurateRip database
Copy OK
Track 10
Filename G:\Rips\Rammstein - Klavier (2015) [FLAC]\10 Engel.wav
Peak level 97.9 %
Extraction speed 7.5 X
Track quality 100.0 %
Test CRC 92983BA1
Copy CRC 92983BA1
Track not present in AccurateRip database
Copy OK
Track 11
Filename G:\Rips\Rammstein - Klavier (2015) [FLAC]\11 Seemann.wav
Peak level 97.9 %
Extraction speed 7.8 X
Track quality 100.0 %
Test CRC 3221AEA9
Copy CRC 3221AEA9
Track not present in AccurateRip database
Copy OK
Track 12
Filename G:\Rips\Rammstein - Klavier (2015) [FLAC]\12 Donaukinder.wav
Peak level 97.9 %
Extraction speed 7.9 X
Track quality 100.0 %
Test CRC FF4C25E1
Copy CRC FF4C25E1
Track not present in AccurateRip database
Copy OK
Track 13
Filename G:\Rips\Rammstein - Klavier (2015) [FLAC]\13 Mein Herz Brennt.wav
Peak level 97.9 %
Extraction speed 7.0 X
Track quality 99.9 %
Test CRC 7539A5FE
Copy CRC 7539A5FE
Track not present in AccurateRip database
Copy OK
None of the tracks are present in the AccurateRip database
No errors occurred
End of status report
---- CUETools DB Plugin V2.1.4
[CTDB TOCID: NxFdOtocdh4nVP4DJVnKhaPGZt8-] found
Submit result: already submitted
Track | CTDB Status
1 | (7/7) Accurately ripped
2 | (7/7) Accurately ripped
3 | (7/7) Accurately ripped
4 | (7/7) Accurately ripped
5 | (7/7) Accurately ripped
6 | (7/7) Accurately ripped
7 | (7/7) Accurately ripped
8 | (7/7) Accurately ripped
9 | (7/7) Accurately ripped
10 | (7/7) Accurately ripped
11 | (7/7) Accurately ripped
12 | (7/7) Accurately ripped
13 | (7/7) Accurately ripped
==== Log checksum F2FB2B342CC7B87362CE7CE96F46492D899E226BF24309C7280B60225CDC6812 ====

spectrum

Track 1



Показать сообщения:    

Текущее время: 09-Дек 18:34

Часовой пояс: UTC + 3


Вы не можете начинать темы
Вы не можете отвечать на сообщения
Вы не можете редактировать свои сообщения
Вы не можете удалять свои сообщения
Вы не можете голосовать в опросах
Вы не можете прикреплять файлы к сообщениям
Вы не можете скачивать файлы