Рожественская хлопушка / Christmas Cracker (Джефф Хал, Норман МакЛарен, Грант Манро, Джеральд Поттертон / Jeff Hale, Norman McLaren, Grant Munro, Gerald Potterton) [1963, Канада, авторская анимация, WEBRip]


 

[Цитировать]

Рожественская хлопушка / Christmas Cracker
Страна: Канада
Жанр: авторская анимация
Год выпуска: 1963
Продолжительность: 00:09:11
Перевод: не требуется
Cубтитры: нет
Режиссёры: Джефф Хал, Норман МакЛарен, Грант Манро, Джеральд Поттертон / Jeff Hale, Norman McLaren, Grant Munro, Gerald Potterton
Описание: Альманах из трёх сюжетов, так или иначе связанных с темой Рождества.
Доп. информация: Лучший короткометражный мультфильм - Фестиваль в Сан-Франциско (1964)
Номинация на "Оскар" (1965)
Качество видео: WEBRip
Формат видео: AVI
Видео: 2362 kbps, 720х528 (4:3), 24.000 fps, MPEG-4 Visual (XviD)
Аудио: 192 kbps, 44.1 kHz, 2 channels, MPEG Audio (MP3)

MediaInfo

General
Complete name : Christmas Cracker (1963).avi
Format : AVI
Format/Info : Audio Video Interleave
File size : 169 MiB
Duration : 9mn 11s
Overall bit rate : 2 563 Kbps
Writing library : VirtualDub build 35491/release
Video
ID : 0
Format : MPEG-4 Visual
Format profile : Advanced Simple@L5
Format settings, BVOP : 2
Format settings, QPel : No
Format settings, GMC : No warppoints
Format settings, Matrix : Default (H.263)
Codec ID : XVID
Codec ID/Hint : XviD
Duration : 9mn 11s
Bit rate : 2 362 Kbps
Width : 720 pixels
Height : 528 pixels
Display aspect ratio : 4:3
Frame rate : 24.000 fps
Color space : YUV
Chroma subsampling : 4:2:0
Bit depth : 8 bits
Scan type : Progressive
Compression mode : Lossy
Bits/(Pixel*Frame) : 0.259
Stream size : 155 MiB (92%)
Writing library : XviD 64
Audio
ID : 1
Format : MPEG Audio
Format version : Version 1
Format profile : Layer 3
Mode : Joint stereo
Codec ID : 55
Codec ID/Hint : MP3
Duration : 9mn 11s
Bit rate mode : Constant
Bit rate : 192 Kbps
Channel(s) : 2 channels
Sampling rate : 44.1 KHz
Compression mode : Lossy
Stream size : 12.6 MiB (7%)
Alignment : Split accross interleaves
Interleave, duration : 42 ms (1.00 video frame)
Interleave, preload duration : 500 ms

Скриншоты c названием фильма

Скриншоты




Показать сообщения:    

Текущее время: 10-Дек 07:57

Часовой пояс: UTC + 3


Вы не можете начинать темы
Вы не можете отвечать на сообщения
Вы не можете редактировать свои сообщения
Вы не можете удалять свои сообщения
Вы не можете голосовать в опросах
Вы не можете прикреплять файлы к сообщениям
Вы не можете скачивать файлы