(Classical) Carl Schuricht - Unissued Broadcast Recordings (Wagner, Mendelssohn, Haydn, Schubert, Bruckner, Beethoven, Bach) - 2001, FLAC (image+.cue) lossless


 

[Цитировать]

Carl Schuricht - Unissued Broadcast Recordings
Жанр: Classical
Страна-производитель диска: USA
Год издания диска: 2001
Издатель (лейбл): Music and Arts Programs of America
Номер по каталогу: CD-1094
Дата записи: 1937-1952
Аудиокодек: FLAC
Тип рипа: image+.cue
Битрейт аудио: lossless
Продолжительность: 3:55:18
Источник: собственный рип
Наличие сканов в содержимом раздачи: нет
Треклист:
# DISC 1 (59:49)
Wagner: Prelude and Liebestod from Tristan and Isolde
(Radio-Sinfonieorchester Stuttgart, 29 Apr. 1950)
1. Prelude to Act I / 11:28
2. Isolde's Liebestod / 06:51
3. Mendelssohn: Athalia Overture, Op.74 / 09:23
(Radio-Sinfonieorchester Stuttgart, 29 Apr. 1950)
Reger: Variations and Fuge on a Theme by Mozart, Op.132
(Radio-Sinfonieorchester Stuttgart, 5 Nov. 1950)
4. Theme and 8 Variations / 22:34
5. Fugue. Allegretto grazioso / 09:21
# DISC 2 (50:45)
Haydn: Cello Concerto in D Major, Hob VIIb:2 (Op.101)
(with Enrico Mainardi, Radio-Sinfonieorchester Stuttgart, 5 Nov. 1950)
1. I. Allegro moderato / 13:59
2. II. Adagio / 06:54
3. III. Rondo: Allegro / 06:15
Schubert: Symphony No.8 in B minor, D.759 'Unfinished'
(Radio-Sinfonieorchester Stuttgart, 29 Feb. 1952)
4. I. Allegro moderato / 11:31
5. II. Allegro con moto / 12:00
# DISC 3 (56:03)
Bruckner: Symphony No.9 in D minor (Org. 1894 Version, ed. A. Orel)
(Radio-Sinfonieorchester Stuttgart, Nov. 1951)
1. I. Feierlich: Misterioso / 23:38
2. II. Scherzo: Bewegt, lebhaft - Trio: Schnell / 10:11
3. III. Adagio: Langsam feierlich / 22:14
# DISC 4 (69:17)
1. Wagner: Siegfried's Death (from Götterdämmerung) / 11:00
(Grosses Berliner Rundfunkorchester, 19 Jun. 1942)
2. Beethoven: Symphony No.3 in E♭ Major, Op.55 (II. Marcia funebre: Adagio assai) / 15:28
(Grosses Berliner Rundfunkorchester, 19 Jun. 1942)
J. C. Bach: Sinfonia in D Major, Op.18 No.4
(Orchester des Reichssenders Berlin, 9 Apr. 1937)
3. I. Allegro con spirito / 04:03
4. II. Andante / 03:39
5. III. Rondo: Presto / 02:24
Beethoven: Symphony No.7 in A Major, Op.92
(Orchester des Reichssenders Berlin, 26 Feb. 1937)
6. I. Poco sostenuto / 11:19
7. II. Allegretto / 07:43
8. III. Presto / 06:56
9. IV. Allegro con brio / 06:27

Содержание индексной карты (.CUE)DISC 1

REM GENRE Classical
REM DATE 1950
REM DISCID 3A0E0505
REM COMMENT "ExactAudioCopy v1.0b3"
PERFORMER "Carl Schuricht & Radio-Sinfonieorchester Stuttgart"
TITLE "Unissued Broadcast Recordings (CD1) - Wagner, Reger"
FILE "CD1.flac" WAVE
TRACK 01 AUDIO
TITLE "Wagner : Tristan und Isolde (50.4.29) - Vorspiel"
PERFORMER "Carl Schuricht & Radio-Sinfonieorchester Stuttgart"
INDEX 01 00:00:00
TRACK 02 AUDIO
TITLE "Wagner : Tristan und Isolde (50.4.29) - Liebestod"
PERFORMER "Carl Schuricht & Radio-Sinfonieorchester Stuttgart"
INDEX 01 11:27:57
TRACK 03 AUDIO
TITLE "Mendelssohn : Athalia, op.74 - Overture (50.4.29)"
PERFORMER "Carl Schuricht & Radio-Sinfonieorchester Stuttgart"
INDEX 00 18:18:62
INDEX 01 18:24:47
TRACK 04 AUDIO
TITLE "Reger : Variations and Fugue on a Theme by Mozart, op.132 (50.11.5) - Variati..."
PERFORMER "Carl Schuricht & Radio-Sinfonieorchester Stuttgart"
INDEX 00 27:48:12
INDEX 01 27:53:47
TRACK 05 AUDIO
TITLE "Reger : Variations and Fugue on a Theme by Mozart, op.132 (50.11.5) - Fuge"
PERFORMER "Carl Schuricht & Radio-Sinfonieorchester Stuttgart"
INDEX 01 50:28:00

DISC 2

REM GENRE Classical
REM DATE 1950
REM DISCID 380BE505
REM COMMENT "ExactAudioCopy v1.0b3"
PERFORMER "Carl Schuricht & Radio-Sinfonieorchester Stuttgart"
TITLE "Unissued Broadcast Recordings (CD2) - Haydn (50.11.5), Schubert (52.2.29)"
FILE "CD2.flac" WAVE
TRACK 01 AUDIO
TITLE "Haydn : Cello Concerto No.2 in D major, Hob.VIIb:2 (E. Mainardi on Cello) - I..."
PERFORMER "Carl Schuricht & Radio-Sinfonieorchester Stuttgart"
INDEX 01 00:00:00
TRACK 02 AUDIO
TITLE "Haydn : Cello Concerto No.2 in D major, Hob.VIIb:2 (E. Mainardi on Cello) - I..."
PERFORMER "Carl Schuricht & Radio-Sinfonieorchester Stuttgart"
INDEX 01 13:58:60
TRACK 03 AUDIO
TITLE "Haydn : Cello Concerto No.2 in D major, Hob.VIIb:2 (E. Mainardi on Cello) - I..."
PERFORMER "Carl Schuricht & Radio-Sinfonieorchester Stuttgart"
INDEX 01 20:53:10
TRACK 04 AUDIO
TITLE "Schubert : Symphony No.8 in B minor, D.759 'Unfinished' - I. Allegro moderato"
PERFORMER "Carl Schuricht & Radio-Sinfonieorchester Stuttgart"
INDEX 00 27:08:27
INDEX 01 27:14:00
TRACK 05 AUDIO
TITLE "Schubert : Symphony No.8 in B minor, D.759 'Unfinished' - II. Andante con moto"
PERFORMER "Carl Schuricht & Radio-Sinfonieorchester Stuttgart"
INDEX 01 38:44:55

DISC 3

REM GENRE Classical
REM DATE 1951
REM DISCID 160D2303
REM COMMENT "ExactAudioCopy v1.0b3"
PERFORMER "Carl Schuricht & Radio-Sinfonieorchester Stuttgart"
TITLE "Unissued Broadcast Recordings (CD3) - Bruckner : Symphony No.9"
FILE "CD3.flac" WAVE
TRACK 01 AUDIO
TITLE "Bruckner : Symphony No.9 In D Minor: I. Feierlich"
PERFORMER "Carl Schuricht & Radio-Sinfonieorchester Stuttgart"
INDEX 01 00:00:00
TRACK 02 AUDIO
TITLE "Bruckner : Symphony No.9 In D Minor: II. Scherzo/Trio Bewegt, lebhaft/Schnell"
PERFORMER "Carl Schuricht & Radio-Sinfonieorchester Stuttgart"
INDEX 01 23:37:47
TRACK 03 AUDIO
TITLE "Bruckner : Symphony No.9 In D Minor: III. Adagio. Sehr langsam"
PERFORMER "Carl Schuricht & Radio-Sinfonieorchester Stuttgart"
INDEX 01 33:48:47

DISC 4

REM GENRE Classical
REM DATE 1937
REM DISCID 7C103D09
REM COMMENT "ExactAudioCopy v1.0b3"
PERFORMER "Carl Schuricht & Orchester des Reichsenders Berlin"
TITLE "Unissued Broadcast Recordings (CD4) - Wagner, J. C. Bach, Beethoven"
FILE "CD4.flac" WAVE
TRACK 01 AUDIO
TITLE "Wagner : Die Gotterdammerung (Twilight of the Gods) - Siegfried's Death (42.6..."
PERFORMER "Carl Schuricht & Orchester des Reichsenders Berlin"
INDEX 01 00:00:00
TRACK 02 AUDIO
TITLE "Beethoven : Symphony No.3 in E flat major, op.55 - II. Marcia funebre: Adagio..."
PERFORMER "Carl Schuricht & Orchester des Reichsenders Berlin"
INDEX 00 11:00:32
INDEX 01 11:06:00
TRACK 03 AUDIO
TITLE "J. C. Bach : Symphony for Orchestra in D major, op.18 no.4 (37.4.9) - I. Alle..."
PERFORMER "Carl Schuricht & Orchester des Reichsenders Berlin"
INDEX 00 26:34:45
INDEX 01 26:40:00
TRACK 04 AUDIO
TITLE "J. C. Bach : Symphony for Orchestra in D major, op.18 no.4 (37.4.9) - II. And..."
PERFORMER "Carl Schuricht & Orchester des Reichsenders Berlin"
INDEX 01 30:42:67
TRACK 05 AUDIO
TITLE "J. C. Bach : Symphony for Orchestra in D major, op.18 no.4 (37.4.9) - III. Ro..."
PERFORMER "Carl Schuricht & Orchester des Reichsenders Berlin"
INDEX 01 34:21:62
TRACK 06 AUDIO
TITLE "Beethoven : Symphony No.7 in A major, op.92 (37.2.26) - I. Poco sostenuto - V..."
PERFORMER "Carl Schuricht & Orchester des Reichsenders Berlin"
INDEX 00 36:46:47
INDEX 01 36:52:00
TRACK 07 AUDIO
TITLE "Beethoven : Symphony No.7 in A major, op.92 (37.2.26) - II. Allegretto"
PERFORMER "Carl Schuricht & Orchester des Reichsenders Berlin"
INDEX 01 48:11:20
TRACK 08 AUDIO
TITLE "Beethoven : Symphony No.7 in A major, op.92 (37.2.26) - III. Presto"
PERFORMER "Carl Schuricht & Orchester des Reichsenders Berlin"
INDEX 01 55:53:62
TRACK 09 AUDIO
TITLE "Beethoven : Symphony No.7 in A major, op.92 (37.2.26) - IV. Allegro con brio"
PERFORMER "Carl Schuricht & Orchester des Reichsenders Berlin"
INDEX 01 62:49:67

Лог создания рипа (.LOG)DISC 1

Exact Audio Copy V1.0 beta 3 from 29. August 2011
EAC extraction logfile from 24. December 2015, 15:50
Carl Schuricht & Radio-Sinfonieorchester Stuttgart / Unissued Broadcast Recordings (CD1) - Wagner, Reger
Used drive : TSSTcorpCDDVDW SH-216AB Adapter: 1 ID: 0
Read mode : Secure
Utilize accurate stream : Yes
Defeat audio cache : No
Make use of C2 pointers : Yes
Read offset correction : 6
Overread into Lead-In and Lead-Out : No
Fill up missing offset samples with silence : Yes
Delete leading and trailing silent blocks : No
Null samples used in CRC calculations : Yes
Used interface : Native Win32 interface for Win NT & 2000
Used output format : User Defined Encoder
Selected bitrate : 896 kBit/s
Quality : High
Add ID3 tag : No
Command line compressor : C:\Users\mul\Desktop\App\EAC\Flac\flac.exe
Additional command line options : -8 -V -T "ARTIST=%artist%" -T "TITLE=%title%" -T "ALBUM=%albumtitle%" -T "DATE=%year%" -T "TRACKNUMBER=%tracknr%" -T "GENRE=%genre%" -T "PERFORMER=%albuminterpret%" -T "COMPOSER=%composer%" %haslyrics%–tag-from-file=LYRICS="%lyricsfile%"%haslyrics% -T "ALBUMARTIST=%albumartist%" -T "DISCNUMBER=%cdnumber%" -T "TOTALDISCS=%totalcds%" -T "TOTALTRACKS=%numtracks%" -T "COMMENT=%comment%" %source% -o %dest%
TOC of the extracted CD
Track | Start | Length | Start sector | End sector
---------------------------------------------------------
1 | 0:00.00 | 11:27.57 | 0 | 51581
2 | 11:27.57 | 6:56.65 | 51582 | 82846
3 | 18:24.47 | 9:29.00 | 82847 | 125521
4 | 27:53.47 | 22:34.28 | 125522 | 227099
5 | 50:28.00 | 9:21.32 | 227100 | 269206
Range status and errors
Selected range
Filename C:\Users\mul\Desktop\CD1.wav
Peak level 99.2 %
Extraction speed 16.5 X
Range quality 100.0 %
Test CRC A12B5BD4
Copy CRC A12B5BD4
Copy OK
No errors occurred
End of status report
---- CUETools DB Plugin V2.1.3
[CTDB TOCID: nP1UZnEF9f4ikReDd4PoR7U6GZc-] disk not present in database, Submit result: nP1UZnEF9f4ikReDd4PoR7U6GZc- has been uploaded
==== Log checksum B862A48D77BFEE054647B1EC5C7838520D403888FAD4D5785CD4882A4AA12532 ====

DISC 2

Exact Audio Copy V1.0 beta 3 from 29. August 2011
EAC extraction logfile from 24. December 2015, 15:59
Carl Schuricht & Radio-Sinfonieorchester Stuttgart / Unissued Broadcast Recordings (CD2) - Haydn (50.11.5), Schubert (52.2.29)
Used drive : TSSTcorpCDDVDW SH-216AB Adapter: 1 ID: 0
Read mode : Secure
Utilize accurate stream : Yes
Defeat audio cache : No
Make use of C2 pointers : Yes
Read offset correction : 6
Overread into Lead-In and Lead-Out : No
Fill up missing offset samples with silence : Yes
Delete leading and trailing silent blocks : No
Null samples used in CRC calculations : Yes
Used interface : Native Win32 interface for Win NT & 2000
Used output format : User Defined Encoder
Selected bitrate : 896 kBit/s
Quality : High
Add ID3 tag : No
Command line compressor : C:\Users\mul\Desktop\App\EAC\Flac\flac.exe
Additional command line options : -8 -V -T "ARTIST=%artist%" -T "TITLE=%title%" -T "ALBUM=%albumtitle%" -T "DATE=%year%" -T "TRACKNUMBER=%tracknr%" -T "GENRE=%genre%" -T "PERFORMER=%albuminterpret%" -T "COMPOSER=%composer%" %haslyrics%–tag-from-file=LYRICS="%lyricsfile%"%haslyrics% -T "ALBUMARTIST=%albumartist%" -T "DISCNUMBER=%cdnumber%" -T "TOTALDISCS=%totalcds%" -T "TOTALTRACKS=%numtracks%" -T "COMMENT=%comment%" %source% -o %dest%
TOC of the extracted CD
Track | Start | Length | Start sector | End sector
---------------------------------------------------------
1 | 0:00.00 | 13:58.60 | 0 | 62909
2 | 13:58.60 | 6:54.25 | 62910 | 93984
3 | 20:53.10 | 6:20.65 | 93985 | 122549
4 | 27:14.00 | 11:30.55 | 122550 | 174354
5 | 38:44.55 | 12:00.35 | 174355 | 228389
Range status and errors
Selected range
Filename C:\Users\mul\Desktop\CD2.wav
Peak level 99.8 %
Extraction speed 15.8 X
Range quality 99.9 %
Test CRC 0D8F7DC8
Copy CRC 0D8F7DC8
Copy OK
No errors occurred
End of status report
---- CUETools DB Plugin V2.1.3
[CTDB TOCID: ApOIOFliTyG_rjhvlI7SXZ7TG4U-] disk not present in database, Submit result: ApOIOFliTyG_rjhvlI7SXZ7TG4U- has been uploaded
==== Log checksum 2281485C48CB8392E371DD17AB973C2EDF03A3AB7C073893B0F7E791257F736A ====

DISC 3

Exact Audio Copy V1.0 beta 3 from 29. August 2011
EAC extraction logfile from 24. December 2015, 16:12
Unknown Artist / Unknown Title
Used drive : TSSTcorpCDDVDW SH-216AB Adapter: 1 ID: 0
Read mode : Secure
Utilize accurate stream : Yes
Defeat audio cache : No
Make use of C2 pointers : Yes
Read offset correction : 6
Overread into Lead-In and Lead-Out : No
Fill up missing offset samples with silence : Yes
Delete leading and trailing silent blocks : No
Null samples used in CRC calculations : Yes
Used interface : Native Win32 interface for Win NT & 2000
Used output format : User Defined Encoder
Selected bitrate : 896 kBit/s
Quality : High
Add ID3 tag : No
Command line compressor : C:\Users\mul\Desktop\App\EAC\Flac\flac.exe
Additional command line options : -8 -V -T "ARTIST=%artist%" -T "TITLE=%title%" -T "ALBUM=%albumtitle%" -T "DATE=%year%" -T "TRACKNUMBER=%tracknr%" -T "GENRE=%genre%" -T "PERFORMER=%albuminterpret%" -T "COMPOSER=%composer%" %haslyrics%–tag-from-file=LYRICS="%lyricsfile%"%haslyrics% -T "ALBUMARTIST=%albumartist%" -T "DISCNUMBER=%cdnumber%" -T "TOTALDISCS=%totalcds%" -T "TOTALTRACKS=%numtracks%" -T "COMMENT=%comment%" %source% -o %dest%
TOC of the extracted CD
Track | Start | Length | Start sector | End sector
---------------------------------------------------------
1 | 0:00.00 | 23:37.47 | 0 | 106321
2 | 23:37.47 | 10:11.00 | 106322 | 152146
3 | 33:48.47 | 22:14.58 | 152147 | 252254
Range status and errors
Selected range
Filename C:\Users\mul\Desktop\CD3.wav
Peak level 99.5 %
Extraction speed 8.6 X
Range quality 100.0 %
Test CRC DCE02853
Copy CRC DCE02853
Copy OK
No errors occurred
End of status report
---- CUETools DB Plugin V2.1.3
[CTDB TOCID: mppquNYbHUimAY.maAJ_jtODtcM-] disk not present in database, Submit result: mppquNYbHUimAY.maAJ_jtODtcM- has been uploaded
==== Log checksum 30E28AB8FABD15372DB2792222651A4124C298D83F0DFDF3253AD6FA53E296A2 ====

DISC 4

Exact Audio Copy V1.0 beta 3 from 29. August 2011
EAC extraction logfile from 24. December 2015, 16:22
Carl Schuricht & Orchester des Reichsenders Berlin / Unissued Broadcast Recordings (CD4) - Wagner, J. C. Bach, Beethoven
Used drive : TSSTcorpCDDVDW SH-216AB Adapter: 1 ID: 0
Read mode : Secure
Utilize accurate stream : Yes
Defeat audio cache : No
Make use of C2 pointers : Yes
Read offset correction : 6
Overread into Lead-In and Lead-Out : No
Fill up missing offset samples with silence : Yes
Delete leading and trailing silent blocks : No
Null samples used in CRC calculations : Yes
Used interface : Native Win32 interface for Win NT & 2000
Used output format : User Defined Encoder
Selected bitrate : 896 kBit/s
Quality : High
Add ID3 tag : No
Command line compressor : C:\Users\mul\Desktop\App\EAC\Flac\flac.exe
Additional command line options : -8 -V -T "ARTIST=%artist%" -T "TITLE=%title%" -T "ALBUM=%albumtitle%" -T "DATE=%year%" -T "TRACKNUMBER=%tracknr%" -T "GENRE=%genre%" -T "PERFORMER=%albuminterpret%" -T "COMPOSER=%composer%" %haslyrics%–tag-from-file=LYRICS="%lyricsfile%"%haslyrics% -T "ALBUMARTIST=%albumartist%" -T "DISCNUMBER=%cdnumber%" -T "TOTALDISCS=%totalcds%" -T "TOTALTRACKS=%numtracks%" -T "COMMENT=%comment%" %source% -o %dest%
TOC of the extracted CD
Track | Start | Length | Start sector | End sector
---------------------------------------------------------
1 | 0:00.00 | 11:06.00 | 0 | 49949
2 | 11:06.00 | 15:34.00 | 49950 | 119999
3 | 26:40.00 | 4:02.67 | 120000 | 138216
4 | 30:42.67 | 3:38.70 | 138217 | 154636
5 | 34:21.62 | 2:30.13 | 154637 | 165899
6 | 36:52.00 | 11:19.20 | 165900 | 216844
7 | 48:11.20 | 7:42.42 | 216845 | 251536
8 | 55:53.62 | 6:56.05 | 251537 | 282741
9 | 62:49.67 | 6:27.53 | 282742 | 311819
Range status and errors
Selected range
Filename C:\Users\mul\Desktop\CD4.wav
Peak level 96.0 %
Extraction speed 17.2 X
Range quality 100.0 %
Test CRC 73758C0E
Copy CRC 73758C0E
Copy OK
No errors occurred
End of status report
---- CUETools DB Plugin V2.1.3
[CTDB TOCID: kXP5.AbEz_uMlqU3piAMi4TmTOo-] disk not present in database, Submit result: kXP5.AbEz_uMlqU3piAMi4TmTOo- has been uploaded
==== Log checksum 029E34F2A399C94ED5E0273A4C641AC3D4ED906FD1527369EA997D760BC48BBE ====
Доп. информация (Notice) :
1. no SCAN IMAGES included
2. in contents of Info.png : Radio-Sinfoniaorchester Stuttgart => Radio-Sinfonieorchester Stuttgart



Показать сообщения:    

Текущее время: 11-Дек 13:02

Часовой пояс: UTC + 3


Вы не можете начинать темы
Вы не можете отвечать на сообщения
Вы не можете редактировать свои сообщения
Вы не можете удалять свои сообщения
Вы не можете голосовать в опросах
Вы не можете прикреплять файлы к сообщениям
Вы не можете скачивать файлы