(Baroque oratorio) Handel - Messiah (Stadsknapenkoor, Barokorkest Florilegium Musicumt, Pieter Jan Leusink) - 1993, FLAC (tracks+.cue) lossless


Статистика раздачи [Обновить пиров]
Размер:  656 MB   |    Зарегистрирован:  8 месяцев 15 дней   |    Скачан:  2 раза

Полного источника не было: 4 месяца 14 дней

 
   
 
 
 

[Цитировать]

Handel - Messiah

Жанр: Baroque oratorio
Страна-производитель диска: Made in Austria
Год издания диска: 1993
Издатель (лейбл): STH Quality Classics
Номер по каталогу: 19483-2
Дата записи: 1993
Аудиокодек: FLAC
Тип рипа: tracks+.cue
Битрейт аудио: lossless
Продолжительность: 69'32 + 73'08
Источник: релизер
сайт-источник/ник/другое: Dutchpublisher and Meeting in Music blogspot
Наличие сканов в содержимом раздачи: да
Треклист:

скрытый текст

CD1

скрытый текст

Первый вариант:
1. Sinfony (3:20)
2. Comfort Ye My People (2:52)
3. Ev'ry Valley Shall Be Exalted (3:23)
4. And The Glory Of The Lord (2:53)
5. Thus Saith The Lord (1:24)
6. But Who May Abide (4:34)
7. And He Shall Purify (2:28)
8. Behold A Virgin Shall
9. O Thou That Tellest (5:57)
10. For Behold, Darkness (2:10)
11. The People That Walked In The Darkness (3:56)
12. For Unto Us A Child Is Born (4:02)
13. Pifa (2:44)
14. There Were Shepherds In The Field
15. And Lo, The Angel
16. And The Angel Said
17. And Suddenly There Was An Angel
18. Glory To God (1:54)
19. Rejoice (4:36)
20. Then Shall The Eyes
21. He Shall Feed His Flock (4:36)
22. His Yoke Is Easy Ans His Burden Light (2:24)
23. Behold The Lamb Of God (2:30)
24. He Was Despised (11:23)
Второй вариант:
1. 3:21 Sinfony
2. 2:53 Comfort ye my people
3. 3:23 Ev'ry valley shall be exalted
4. 2:53 And the Glory of the Lord
5. 1:25 Thus saith the Lord
6. 4:35 But who may abide
7. 2:28 And he shall Purify
8. 0:28 Behold a virgin shall
9. 5:58 O thou that tellest
10. 2:11 For behold, darkness
11. 3:57 The people that walked in the darkness
12. 4:03 For unto us a child is born
13. 2:45 Pifa
14. 0:13 There were shepherds in the field
15. 0:18 And lo, the angel
16. 0:36 And the angel said
17. 0:17 And suddenly there was an angel
18. 1:55 Glory to God
19. 4:37 Rejoice
20. 0:27 Then Shall the Eyes
21. 4:37 He shall feed his flock
22. 2:25 His yoke is easy ans His burden light
23. 2:31 Behold the Lamb of God
24. 11:22 He was despised
CD2

скрытый текст

1. 1:46 Surely he hath born
2. 2:04 And with His stripes
3. 4:10 All we like sheep
4. 0:42 All they that see Him
5. 2:21 He trusted in God
6. 1:38 Thy rebuke hath broken
7. 1:32 Behold, and see
8. 0:18 He was cut off out
9. 1:55 But thou didst not leave
10. 3:02 Lift up your heads
11. 0:15 Unto which of the angels
12. 1:26 Let all the angels of God
13. 3:24 Thou art gone up on high
14. 1:15 The Lord gave the word
15. 2:13 How beautiful are the feet
16. 1:16 Their sound is gone out
17. 2:51 Why do the nations
18. 1:53 Let us break
19. 0:11 He that dwelleth
20. 1:57 Thou shalt break them
21. 3:57 Hallelujah
22. 5:09 I know that my Redeemer
23. 2:08 Since by man came death
24. 0:33 Behold, I tell you a mistery
25. 9:14 The trumpet shall sound
26. 0:15 Then shall be brought
27. 1:12 O death, where is thy sting
28. 2:24 But thanks be to God
29. 4:47 If God be for us
30. 1:18 Worthy is the Lamb
31. 2:03 Blessing and honour
32. 4:10 Amen
Исполнители:

скрытый текст

George Frideric Handel (1685-1759)
Messiah, HWV 56
Maya Roodveldt - soprano
Paul van den Bemt - tenor
Sytse Buwalda - countertenor
Julian Hartman - bass
Stadsknapenkoor Elburg
Barokorkest Florilegium Musicum
Pieter Jan Leusink - direction
Recorded September 1993
Лог создания рипа
CD1

скрытый текст

Exact Audio Copy V1.1 from 23. June 2015
EAC extraction logfile from 17. December 2015, 11:47
Florilegium Musicum, Choir, Leusink / Messiah [CD1]
Used drive : hp DVD A DH16ACSHR Adapter: 1 ID: 0
Read mode : Secure
Utilize accurate stream : Yes
Defeat audio cache : Yes
Make use of C2 pointers : No
Read offset correction : 6
Overread into Lead-In and Lead-Out : No
Fill up missing offset samples with silence : Yes
Delete leading and trailing silent blocks : No
Null samples used in CRC calculations : Yes
Used interface : Native Win32 interface for Win NT & 2000
Gap handling : Appended to previous track
Used output format : User Defined Encoder
Selected bitrate : 1024 kBit/s
Quality : High
Add ID3 tag : No
Command line compressor : C:\Program Files (x86)\Exact Audio Copy\FLAC\FLAC.EXE
Additional command line options : -6 -V -T "ARTIST=%artist%" -T "TITLE=%title%" -T "ALBUM=%albumtitle%" -T "DATE=%year%" -T "TRACKNUMBER=%tracknr%" -T "GENRE=%genre%" -T "COMMENT=%comment%" -T "BAND=%albuminterpret%" -T "ALBUMARTIST=%albuminterpret%" -T "COMPOSER=%composer%" %haslyrics%--tag-from-file=LYRICS="%lyricsfile%"%haslyrics% -T "DISCNUMBER=%cdnumber%" -T "TOTALDISCS=%totalcds%" -T "TOTALTRACKS=%numtracks%" %hascover%--picture="%coverfile%"%hascover% %source% -o %dest%
TOC of the extracted CD
Track | Start | Length | Start sector | End sector
---------------------------------------------------------
1 | 0:00.00 | 3:20.43 | 0 | 15042
2 | 3:20.43 | 2:52.32 | 15043 | 27974
3 | 6:13.00 | 3:23.00 | 27975 | 43199
4 | 9:36.00 | 2:53.00 | 43200 | 56174
5 | 12:29.00 | 1:24.48 | 56175 | 62522
6 | 13:53.48 | 4:34.47 | 62523 | 83119
7 | 18:28.20 | 2:28.00 | 83120 | 94219
8 | 20:56.20 | 0:27.05 | 94220 | 96249
9 | 21:23.25 | 5:57.60 | 96250 | 123084
10 | 27:21.10 | 2:10.45 | 123085 | 132879
11 | 29:31.55 | 3:56.53 | 132880 | 150632
12 | 33:28.33 | 4:02.72 | 150633 | 168854
13 | 37:31.30 | 2:44.53 | 168855 | 181207
14 | 40:16.08 | 0:12.20 | 181208 | 182127
15 | 40:28.28 | 0:17.02 | 182128 | 183404
16 | 40:45.30 | 0:35.58 | 183405 | 186087
17 | 41:21.13 | 0:16.05 | 186088 | 187292
18 | 41:37.18 | 1:54.07 | 187293 | 195849
19 | 43:31.25 | 4:36.70 | 195850 | 216619
20 | 48:08.20 | 0:26.50 | 216620 | 218619
21 | 48:34.70 | 4:36.23 | 218620 | 239342
22 | 53:11.18 | 2:24.50 | 239343 | 250192
23 | 55:35.68 | 2:30.45 | 250193 | 261487
24 | 58:06.38 | 11:24.05 | 261488 | 312792
Track 1
Filename C:\EAC\01 Messiah, Part One - Sinfony.wav
Pre-gap length 0:00:02.00
Peak level 27.5 %
Extraction speed 2.2 X
Track quality 100.0 %
Test CRC 9EB0D27B
Copy CRC 9EB0D27B
Accurately ripped (confidence 1) [75E7544E] (AR v1)
Copy OK
Track 2
Filename C:\EAC\02 Messiah, Part One - Recitatief- Comfort ye my people.wav
Peak level 46.8 %
Extraction speed 2.1 X
Track quality 100.0 %
Test CRC 0A59A054
Copy CRC 0A59A054
Accurately ripped (confidence 1) [972B8F3E] (AR v1)
Copy OK
Track 3
Filename C:\EAC\03 Messiah, Part One - Aria- Ev'ry valley shall be exalted.wav
Peak level 35.1 %
Extraction speed 2.1 X
Track quality 100.0 %
Test CRC CFA8287C
Copy CRC CFA8287C
Accurately ripped (confidence 1) [DE5C1F90] (AR v1)
Copy OK
Track 4
Filename C:\EAC\04 Messiah, Part One - Koor- And the glory of the Lord.wav
Peak level 85.2 %
Extraction speed 1.3 X
Track quality 99.9 %
Test CRC 34730818
Copy CRC 34730818
Accurately ripped (confidence 1) [A4DDF817] (AR v1)
Copy OK
Track 5
Filename C:\EAC\05 Messiah, Part One - Recitatief- Thus saith the Lord.wav
Peak level 41.6 %
Extraction speed 0.8 X
Track quality 99.8 %
Test CRC 6FCFEA84
Copy CRC 6FCFEA84
Accurately ripped (confidence 1) [6EFD76DE] (AR v1)
Copy OK
Track 6
Filename C:\EAC\06 Messiah, Part One - Aria- But who may abide.wav
Peak level 45.6 %
Extraction speed 2.2 X
Track quality 100.0 %
Test CRC 2BE451E3
Copy CRC 2BE451E3
Accurately ripped (confidence 1) [32BAE7C1] (AR v1)
Copy OK
Track 7
Filename C:\EAC\07 Messiah, Part One - Koor- And He shall purify.wav
Peak level 92.1 %
Extraction speed 2.0 X
Track quality 100.0 %
Test CRC 03BF5E4C
Copy CRC 03BF5E4C
Accurately ripped (confidence 1) [88FA88E9] (AR v1)
Copy OK
Track 8
Filename C:\EAC\08 Messiah, Part One - Recitatief- Behold a virgin shall.wav
Peak level 8.5 %
Extraction speed 1.0 X
Track quality 100.0 %
Test CRC E6288C88
Copy CRC E6288C88
Accurately ripped (confidence 1) [2D9D9ECD] (AR v1)
Copy OK
Track 9
Filename C:\EAC\09 Messiah, Part One - Aria- O thou that tellest.wav
Peak level 92.4 %
Extraction speed 2.3 X
Track quality 100.0 %
Test CRC 29F923B3
Copy CRC 29F923B3
Accurately ripped (confidence 1) [BBE309FD] (AR v1)
Copy OK
Track 10
Filename C:\EAC\10 Messiah, Part One - Recitatief- For behold, darkness.wav
Peak level 35.3 %
Extraction speed 1.9 X
Track quality 100.0 %
Test CRC C636FD58
Copy CRC C636FD58
Accurately ripped (confidence 1) [9BFD833F] (AR v1)
Copy OK
Track 11
Filename C:\EAC\11 Messiah, Part One - Aria- The people that walked in the darkness.wav
Peak level 41.0 %
Extraction speed 1.5 X
Track quality 99.9 %
Test CRC 0E923524
Copy CRC 0E923524
Accurately ripped (confidence 1) [894E5DC0] (AR v1)
Copy OK
Track 12
Filename C:\EAC\12 Messiah, Part One - Koor- For unto us a child is born.wav
Peak level 90.0 %
Extraction speed 2.2 X
Track quality 100.0 %
Test CRC 687DEFAE
Copy CRC 687DEFAE
Accurately ripped (confidence 1) [480C9E5F] (AR v1)
Copy OK
Track 13
Filename C:\EAC\13 Messiah, Part One - Pifa.wav
Peak level 15.1 %
Extraction speed 2.0 X
Track quality 100.0 %
Test CRC 9B1AA771
Copy CRC 9B1AA771
Accurately ripped (confidence 1) [366F5051] (AR v1)
Copy OK
Track 14
Filename C:\EAC\14 Messiah, Part One - Recitatief- There were shepherds in the field.wav
Peak level 15.1 %
Extraction speed 0.1 X
Track quality 99.1 %
Test CRC DEAACC7D
Copy CRC DEAACC7D
Accurately ripped (confidence 1) [5FB22A27] (AR v1)
Copy OK
Track 15
Filename C:\EAC\15 Messiah, Part One - Recitatief- And lo, the angel.wav
Peak level 24.9 %
Extraction speed 0.7 X
Track quality 100.0 %
Test CRC 7EE56155
Copy CRC 7EE56155
Accurately ripped (confidence 1) [E90374AC] (AR v1)
Copy OK
Track 16
Filename C:\EAC\16 Messiah, Part One - Recitatief- And the angel said.wav
Peak level 18.3 %
Extraction speed 1.1 X
Track quality 100.0 %
Test CRC 65C227CB
Copy CRC 65C227CB
Accurately ripped (confidence 1) [621AC87F] (AR v1)
Copy OK
Track 17
Filename C:\EAC\17 Messiah, Part One - Recitatief- And suddenly there was an angel.wav
Peak level 41.1 %
Extraction speed 0.7 X
Track quality 100.0 %
Test CRC 343CC8FE
Copy CRC 343CC8FE
Accurately ripped (confidence 1) [0A4C7C5B] (AR v1)
Copy OK
Track 18
Filename C:\EAC\18 Messiah, Part One - Koor- Glory to God.wav
Peak level 92.8 %
Extraction speed 1.8 X
Track quality 100.0 %
Test CRC 3CA7A1AD
Copy CRC 3CA7A1AD
Accurately ripped (confidence 1) [99B827FC] (AR v1)
Copy OK
Track 19
Filename C:\EAC\19 Messiah, Part One - Aria- Rejoice.wav
Peak level 54.3 %
Extraction speed 2.2 X
Track quality 100.0 %
Test CRC 9F7198F6
Copy CRC 9F7198F6
Accurately ripped (confidence 1) [DBBFAF1D] (AR v1)
Copy OK
Track 20
Filename C:\EAC\20 Messiah, Part One - Recitatief- Then shall the eyes.wav
Peak level 13.2 %
Extraction speed 1.0 X
Track quality 100.0 %
Test CRC 01F0DB36
Copy CRC 01F0DB36
Accurately ripped (confidence 1) [986320BF] (AR v1)
Copy OK
Track 21
Filename C:\EAC\21 Messiah, Part One - Recitatief- He shall feed His flock.wav
Peak level 39.1 %
Extraction speed 2.2 X
Track quality 100.0 %
Test CRC EA8180EB
Copy CRC EA8180EB
Accurately ripped (confidence 1) [0FD4AA0B] (AR v1)
Copy OK
Track 22
Filename C:\EAC\22 Messiah, Part One - Koor- His yoke is easy and His burthen is light.wav
Peak level 78.3 %
Extraction speed 1.9 X
Track quality 100.0 %
Test CRC CE453629
Copy CRC CE453629
Accurately ripped (confidence 1) [6F61F1DC] (AR v1)
Copy OK
Track 23
Filename C:\EAC\23 Messiah, Part Two - Koor- Behold the Lamb of God.wav
Pre-gap length 0:00:04.18
Peak level 67.6 %
Extraction speed 2.0 X
Track quality 100.0 %
Test CRC 37DA767A
Copy CRC 37DA767A
Accurately ripped (confidence 1) [E25B7F2C] (AR v1)
Copy OK
Track 24
Filename C:\EAC\24 Messiah, Part Two - Aria- He was despised.wav
Peak level 20.2 %
Extraction speed 2.4 X
Track quality 100.0 %
Test CRC 8A1AEB7C
Copy CRC 8A1AEB7C
Accurately ripped (confidence 1) [CF365594] (AR v1)
Copy OK
All tracks accurately ripped
No errors occurred
End of status report
---- CUETools DB Plugin V2.1.6
[CTDB TOCID: oq8NBdyo2uKX1ysxjXODG9pOpn0-] found
Submit result: oq8NBdyo2uKX1ysxjXODG9pOpn0- has been confirmed
Track | CTDB Status
1 | (1/1) Accurately ripped
2 | (1/1) Accurately ripped
3 | (1/1) Accurately ripped
4 | (1/1) Accurately ripped
5 | (1/1) Accurately ripped
6 | (1/1) Accurately ripped
7 | (1/1) Accurately ripped
8 | (1/1) Accurately ripped
9 | (1/1) Accurately ripped
10 | (1/1) Accurately ripped
11 | (1/1) Accurately ripped
12 | (1/1) Accurately ripped
13 | (1/1) Accurately ripped
14 | (1/1) Accurately ripped
15 | (1/1) Accurately ripped
16 | (1/1) Accurately ripped
17 | (1/1) Accurately ripped
18 | (1/1) Accurately ripped
19 | (1/1) Accurately ripped
20 | (1/1) Accurately ripped
21 | (1/1) Accurately ripped
22 | (1/1) Accurately ripped
23 | (1/1) Accurately ripped
24 | (1/1) Accurately ripped
==== Log checksum 9B75186D1C3047D6865B4B26D9A98982A1B1263FF8EB7A49A3EC55482E744C2B ====
CD2

скрытый текст

Exact Audio Copy V1.1 from 23. June 2015
EAC extraction logfile from 17. December 2015, 23:01
Florilegium Musicum, Choir, Leusink / Messiah [CD2]
Used drive : hp DVD A DH16ACSHR Adapter: 1 ID: 0
Read mode : Secure
Utilize accurate stream : Yes
Defeat audio cache : Yes
Make use of C2 pointers : No
Read offset correction : 6
Overread into Lead-In and Lead-Out : No
Fill up missing offset samples with silence : Yes
Delete leading and trailing silent blocks : No
Null samples used in CRC calculations : Yes
Used interface : Native Win32 interface for Win NT & 2000
Gap handling : Appended to previous track
Used output format : User Defined Encoder
Selected bitrate : 1024 kBit/s
Quality : High
Add ID3 tag : No
Command line compressor : C:\Program Files (x86)\Exact Audio Copy\FLAC\FLAC.EXE
Additional command line options : -6 -V -T "ARTIST=%artist%" -T "TITLE=%title%" -T "ALBUM=%albumtitle%" -T "DATE=%year%" -T "TRACKNUMBER=%tracknr%" -T "GENRE=%genre%" -T "COMMENT=%comment%" -T "BAND=%albuminterpret%" -T "ALBUMARTIST=%albuminterpret%" -T "COMPOSER=%composer%" %haslyrics%--tag-from-file=LYRICS="%lyricsfile%"%haslyrics% -T "DISCNUMBER=%cdnumber%" -T "TOTALDISCS=%totalcds%" -T "TOTALTRACKS=%numtracks%" %hascover%--picture="%coverfile%"%hascover% %source% -o %dest%
TOC of the extracted CD
Track | Start | Length | Start sector | End sector
---------------------------------------------------------
1 | 0:00.00 | 1:45.08 | 0 | 7882
2 | 1:45.08 | 2:03.57 | 7883 | 17164
3 | 3:48.65 | 4:09.45 | 17165 | 35884
4 | 7:58.35 | 0:41.48 | 35885 | 39007
5 | 8:40.08 | 2:20.45 | 39008 | 49552
6 | 11:00.53 | 1:37.40 | 49553 | 56867
7 | 12:38.18 | 1:31.32 | 56868 | 63724
8 | 14:09.50 | 0:17.50 | 63725 | 65049
9 | 14:27.25 | 1:54.28 | 65050 | 73627
10 | 16:21.53 | 3:01.65 | 73628 | 87267
11 | 19:23.43 | 0:14.15 | 87268 | 88332
12 | 19:37.58 | 1:26.00 | 88333 | 94782
13 | 21:03.58 | 3:23.42 | 94783 | 110049
14 | 24:27.25 | 1:14.15 | 110050 | 115614
15 | 25:41.40 | 2:12.35 | 115615 | 125549
16 | 27:54.00 | 1:15.65 | 125550 | 131239
17 | 29:09.65 | 2:50.53 | 131240 | 144042
18 | 32:00.43 | 1:52.10 | 144043 | 152452
19 | 33:52.53 | 0:10.22 | 152453 | 153224
20 | 34:03.00 | 1:56.55 | 153225 | 161979
21 | 35:59.55 | 3:56.28 | 161980 | 179707
22 | 39:56.08 | 5:08.07 | 179708 | 202814
23 | 45:04.15 | 2:07.18 | 202815 | 212357
24 | 47:11.33 | 0:32.47 | 212358 | 214804
25 | 47:44.05 | 9:13.38 | 214805 | 256317
26 | 56:57.43 | 0:14.27 | 256318 | 257394
27 | 57:11.70 | 1:11.63 | 257395 | 262782
28 | 58:23.58 | 2:23.60 | 262783 | 273567
29 | 60:47.43 | 4:47.00 | 273568 | 295092
30 | 65:34.43 | 1:17.15 | 295093 | 300882
31 | 66:51.58 | 2:02.42 | 300883 | 310074
32 | 68:54.25 | 4:12.38 | 310075 | 329012
Track 1
Filename C:\EAC\01 Messiah, Part Two - Koor- Surely He hath born.wav
Pre-gap length 0:00:02.00
Peak level 93.2 %
Extraction speed 1.9 X
Track quality 100.0 %
Test CRC DDF3CF2E
Copy CRC DDF3CF2E
Accurately ripped (confidence 1) [FCB04B8F] (AR v1)
Copy OK
Track 2
Filename C:\EAC\02 Messiah, Part Two - Koor- And with His stripes.wav
Peak level 78.6 %
Extraction speed 1.9 X
Track quality 100.0 %
Test CRC 78A77AA1
Copy CRC 78A77AA1
Accurately ripped (confidence 1) [19BEF034] (AR v1)
Copy OK
Track 3
Filename C:\EAC\03 Messiah, Part Two - Koor- All we like sheep.wav
Peak level 86.5 %
Extraction speed 2.3 X
Track quality 100.0 %
Test CRC 7E45560C
Copy CRC 7E45560C
Accurately ripped (confidence 1) [151E981B] (AR v1)
Copy OK
Track 4
Filename C:\EAC\04 Messiah, Part Two - Recitatief- All they that see Him.wav
Peak level 38.3 %
Extraction speed 1.4 X
Track quality 100.0 %
Test CRC B9DBA8F0
Copy CRC B9DBA8F0
Accurately ripped (confidence 1) [A87DA7A3] (AR v1)
Copy OK
Track 5
Filename C:\EAC\05 Messiah, Part Two - Koor- He trusted in God.wav
Peak level 89.7 %
Extraction speed 2.0 X
Track quality 100.0 %
Test CRC F47A2F95
Copy CRC F47A2F95
Accurately ripped (confidence 1) [2BB360C7] (AR v1)
Copy OK
Track 6
Filename C:\EAC\06 Messiah, Part Two - Recitatief- Thy rebuke hath broken.wav
Peak level 36.2 %
Extraction speed 1.8 X
Track quality 100.0 %
Test CRC F5AFC6F4
Copy CRC F5AFC6F4
Accurately ripped (confidence 1) [59BA1A71] (AR v1)
Copy OK
Track 7
Filename C:\EAC\07 Messiah, Part Two - Aria- SBehold, and see.wav
Peak level 23.2 %
Extraction speed 1.8 X
Track quality 100.0 %
Test CRC 1EF388C2
Copy CRC 1EF388C2
Accurately ripped (confidence 1) [347647F3] (AR v1)
Copy OK
Track 8
Filename C:\EAC\08 Messiah, Part Two - Recitatief- He was cut off out.wav
Peak level 39.6 %
Extraction speed 0.8 X
Track quality 100.0 %
Test CRC 5567021F
Copy CRC 5567021F
Accurately ripped (confidence 1) [54D0B8AA] (AR v1)
Copy OK
Track 9
Filename C:\EAC\09 Messiah, Part Two - Aria- But Thou didst not leave.wav
Peak level 49.7 %
Extraction speed 1.9 X
Track quality 100.0 %
Test CRC 67491951
Copy CRC 67491951
Accurately ripped (confidence 1) [A931614A] (AR v1)
Copy OK
Track 10
Filename C:\EAC\10 Messiah, Part Two - Koor- Lift up your heads.wav
Peak level 75.5 %
Extraction speed 2.1 X
Track quality 100.0 %
Test CRC F8F3D36D
Copy CRC F8F3D36D
Accurately ripped (confidence 1) [C78FC846] (AR v1)
Copy OK
Track 11
Filename C:\EAC\11 Messiah, Part Two - Recitatief- Unto which of the angels.wav
Peak level 23.9 %
Extraction speed 0.7 X
Track quality 100.0 %
Test CRC 0016F180
Copy CRC 0016F180
Accurately ripped (confidence 1) [9E3FC434] (AR v1)
Copy OK
Track 12
Filename C:\EAC\12 Messiah, Part Two - Koor- Let all the angels of God.wav
Peak level 90.3 %
Extraction speed 0.8 X
Track quality 99.8 %
Test CRC F5744FA4
Copy CRC F5744FA4
Accurately ripped (confidence 1) [DFBD8CAF] (AR v1)
Copy OK
Track 13
Filename C:\EAC\13 Messiah, Part Two - Aria- Thou art gone up on high.wav
Peak level 33.6 %
Extraction speed 2.1 X
Track quality 100.0 %
Test CRC 453457B2
Copy CRC 453457B2
Accurately ripped (confidence 1) [FE3C417F] (AR v1)
Copy OK
Track 14
Filename C:\EAC\14 Messiah, Part Two - Koor- The Lord gave the word.wav
Peak level 90.7 %
Extraction speed 1.7 X
Track quality 100.0 %
Test CRC BD605962
Copy CRC BD605962
Accurately ripped (confidence 1) [C682C634] (AR v1)
Copy OK
Track 15
Filename C:\EAC\15 Messiah, Part Two - Aria- How beautiful are the feet.wav
Peak level 38.6 %
Extraction speed 1.1 X
Track quality 99.9 %
Test CRC 65528412
Copy CRC 65528412
Accurately ripped (confidence 1) [D253BEF3] (AR v1)
Copy OK
Track 16
Filename C:\EAC\16 Messiah, Part Two - Koor- Their sound is gone out.wav
Peak level 87.4 %
Extraction speed 1.6 X
Track quality 100.0 %
Test CRC 25C94D65
Copy CRC 25C94D65
Accurately ripped (confidence 1) [B1E94F9B] (AR v1)
Copy OK
Track 17
Filename C:\EAC\17 Messiah, Part Two - Aria- Why do the nations.wav
Peak level 49.6 %
Extraction speed 2.0 X
Track quality 100.0 %
Test CRC 2F224227
Copy CRC 2F224227
Accurately ripped (confidence 1) [C718E664] (AR v1)
Copy OK
Track 18
Filename C:\EAC\18 Messiah, Part Two - Koor- Let us break.wav
Peak level 89.2 %
Extraction speed 1.9 X
Track quality 100.0 %
Test CRC 3BFE68E0
Copy CRC 3BFE68E0
Accurately ripped (confidence 1) [EDBD1A0D] (AR v1)
Copy OK
Track 19
Filename C:\EAC\19 Messiah, Part Two - Recitatief- He that dwelleth.wav
Peak level 14.5 %
Extraction speed 0.1 X
Track quality 98.9 %
Test CRC F610BA5D
Copy CRC F610BA5D
Accurately ripped (confidence 1) [8A979E26] (AR v1)
Copy OK
Track 20
Filename C:\EAC\20 Messiah, Part Two - Aria- Thou shalt break them.wav
Peak level 38.7 %
Extraction speed 1.9 X
Track quality 100.0 %
Test CRC 4D787093
Copy CRC 4D787093
Accurately ripped (confidence 1) [2E9666B6] (AR v1)
Copy OK
Track 21
Filename C:\EAC\21 Messiah, Part Two - Koor- Hallelujah.wav
Peak level 93.5 %
Extraction speed 1.5 X
Track quality 99.9 %
Test CRC C038BA6A
Copy CRC C038BA6A
Accurately ripped (confidence 1) [032BB44D] (AR v1)
Copy OK
Track 22
Filename C:\EAC\22 Messiah, Part Three - Aria- I know that my Redeemer.wav
Pre-gap length 0:00:03.40
Peak level 44.4 %
Extraction speed 1.7 X
Track quality 99.9 %
Test CRC 3BB1B7F0
Copy CRC 3BB1B7F0
Accurately ripped (confidence 1) [5F5763C2] (AR v1)
Copy OK
Track 23
Filename C:\EAC\23 Messiah, Part Three - Koor- Since by man came death.wav
Peak level 85.9 %
Extraction speed 1.9 X
Track quality 100.0 %
Test CRC E0333303
Copy CRC E0333303
Accurately ripped (confidence 1) [3A9ACA89] (AR v1)
Copy OK
Track 24
Filename C:\EAC\24 Messiah, Part Three - Recitatief- Behold I tell you a mystery.wav
Peak level 37.3 %
Extraction speed 1.1 X
Track quality 100.0 %
Test CRC ABA5B8A3
Copy CRC ABA5B8A3
Accurately ripped (confidence 1) [125DC82D] (AR v1)
Copy OK
Track 25
Filename C:\EAC\25 Messiah, Part Three - Aria- The trumpet shall sound.wav
Peak level 42.4 %
Extraction speed 2.4 X
Track quality 100.0 %
Test CRC 24A182D8
Copy CRC 24A182D8
Accurately ripped (confidence 1) [C3A88B6D] (AR v1)
Copy OK
Track 26
Filename C:\EAC\26 Messiah, Part Three - Recitatief- Then shall he brought.wav
Peak level 16.7 %
Extraction speed 0.7 X
Track quality 100.0 %
Test CRC E1BD8F45
Copy CRC E1BD8F45
Accurately ripped (confidence 1) [FDD209B4] (AR v1)
Copy OK
Track 27
Filename C:\EAC\27 Messiah, Part Three - Duet- O death, where is thy sting.wav
Peak level 30.1 %
Extraction speed 1.7 X
Track quality 100.0 %
Test CRC 7A67BC7D
Copy CRC 7A67BC7D
Accurately ripped (confidence 1) [2ED4D2E2] (AR v1)
Copy OK
Track 28
Filename C:\EAC\28 Messiah, Part Three - Koor- But thanks be to God.wav
Peak level 93.1 %
Extraction speed 1.9 X
Track quality 100.0 %
Test CRC 5F281A4C
Copy CRC 5F281A4C
Accurately ripped (confidence 1) [4027506E] (AR v1)
Copy OK
Track 29
Filename C:\EAC\29 Messiah, Part Three - Aria- If God be for us.wav
Peak level 43.9 %
Extraction speed 2.2 X
Track quality 100.0 %
Test CRC 239B28F0
Copy CRC 239B28F0
Accurately ripped (confidence 1) [4BF2798D] (AR v1)
Copy OK
Track 30
Filename C:\EAC\30 Messiah, Part Three - Koor- Worthy is the Lamb.wav
Peak level 65.9 %
Extraction speed 1.7 X
Track quality 100.0 %
Test CRC D097ED80
Copy CRC D097ED80
Accurately ripped (confidence 1) [EAAF01B3] (AR v1)
Copy OK
Track 31
Filename C:\EAC\31 Messiah, Part Three - Koor- Blessing and honour.wav
Peak level 89.2 %
Extraction speed 1.9 X
Track quality 100.0 %
Test CRC F6A981D7
Copy CRC F6A981D7
Accurately ripped (confidence 1) [46F709E3] (AR v1)
Copy OK
Track 32
Filename C:\EAC\32 Messiah, Part Three - Koor- Amen.wav
Pre-gap length 0:00:00.01
Peak level 81.2 %
Extraction speed 2.2 X
Track quality 100.0 %
Test CRC CF22E779
Copy CRC CF22E779
Accurately ripped (confidence 1) [C2C69A9C] (AR v1)
Copy OK
All tracks accurately ripped
No errors occurred
End of status report
---- CUETools DB Plugin V2.1.6
[CTDB TOCID: ECSiEbUDki4UKzHbhv5EJ9FT1wU-] found
Submit result: ECSiEbUDki4UKzHbhv5EJ9FT1wU- has been confirmed
Track | CTDB Status
1 | (1/1) Accurately ripped
2 | (1/1) Accurately ripped
3 | (1/1) Accurately ripped
4 | (1/1) Accurately ripped
5 | (1/1) Accurately ripped
6 | (1/1) Accurately ripped
7 | (1/1) Accurately ripped
8 | (1/1) Accurately ripped
9 | (1/1) Accurately ripped
10 | (1/1) Accurately ripped
11 | (1/1) Accurately ripped
12 | (1/1) Accurately ripped
13 | (1/1) Accurately ripped
14 | (1/1) Accurately ripped
15 | (1/1) Accurately ripped
16 | (1/1) Accurately ripped
17 | (1/1) Accurately ripped
18 | (1/1) Accurately ripped
19 | (1/1) Accurately ripped
20 | (1/1) Accurately ripped
21 | (1/1) Accurately ripped
22 | (1/1) Accurately ripped
23 | (1/1) Accurately ripped
24 | (1/1) Accurately ripped
25 | (1/1) Accurately ripped
26 | (1/1) Accurately ripped
27 | (1/1) Accurately ripped
28 | (1/1) Accurately ripped
29 | (1/1) Accurately ripped
30 | (1/1) Accurately ripped
31 | (1/1) Accurately ripped
32 | (1/1) Accurately ripped
==== Log checksum C194A73E19A6CFCD7DCBFA9DCB66E8C7DEE067C9164E805FB82020BAAF1183E3 ====
Содержание индексной карты (.CUE)
CD1

скрытый текст

REM GENRE Classical
REM DATE 1993
REM DISCID 53104A18
REM COMMENT "ExactAudioCopy v1.1"
CATALOG 0000000000000
PERFORMER "Florilegium Musicum, Choir, Leusink"
TITLE "Messiah [CD1]"
FILE "01 Messiah, Part One - Sinfony.wav" WAVE
TRACK 01 AUDIO
TITLE "Messiah, Part One - Sinfony"
PERFORMER "Florilegium Musicum, Choir, Leusink"
INDEX 01 00:00:00
FILE "02 Messiah, Part One - Recitatief- Comfort ye my people.wav" WAVE
TRACK 02 AUDIO
TITLE "Messiah, Part One - Recitatief: Comfort ye my people"
PERFORMER "Florilegium Musicum, Choir, Leusink"
INDEX 01 00:00:00
FILE "03 Messiah, Part One - Aria- Ev'ry valley shall be exalted.wav" WAVE
TRACK 03 AUDIO
TITLE "Messiah, Part One - Aria: Ev'ry valley shall be exalted"
PERFORMER "Florilegium Musicum, Choir, Leusink"
INDEX 01 00:00:00
FILE "04 Messiah, Part One - Koor- And the glory of the Lord.wav" WAVE
TRACK 04 AUDIO
TITLE "Messiah, Part One - Koor: And the glory of the Lord"
PERFORMER "Florilegium Musicum, Choir, Leusink"
INDEX 01 00:00:00
FILE "05 Messiah, Part One - Recitatief- Thus saith the Lord.wav" WAVE
TRACK 05 AUDIO
TITLE "Messiah, Part One - Recitatief: Thus saith the Lord"
PERFORMER "Florilegium Musicum, Choir, Leusink"
INDEX 01 00:00:00
FILE "06 Messiah, Part One - Aria- But who may abide.wav" WAVE
TRACK 06 AUDIO
TITLE "Messiah, Part One - Aria: But who may abide"
PERFORMER "Florilegium Musicum, Choir, Leusink"
INDEX 01 00:00:00
FILE "07 Messiah, Part One - Koor- And He shall purify.wav" WAVE
TRACK 07 AUDIO
TITLE "Messiah, Part One - Koor: And He shall purify"
PERFORMER "Florilegium Musicum, Choir, Leusink"
INDEX 01 00:00:00
FILE "08 Messiah, Part One - Recitatief- Behold a virgin shall.wav" WAVE
TRACK 08 AUDIO
TITLE "Messiah, Part One - Recitatief: Behold a virgin shall"
PERFORMER "Florilegium Musicum, Choir, Leusink"
INDEX 01 00:00:00
FILE "09 Messiah, Part One - Aria- O thou that tellest.wav" WAVE
TRACK 09 AUDIO
TITLE "Messiah, Part One - Aria: O thou that tellest"
PERFORMER "Florilegium Musicum, Choir, Leusink"
INDEX 01 00:00:00
FILE "10 Messiah, Part One - Recitatief- For behold, darkness.wav" WAVE
TRACK 10 AUDIO
TITLE "Messiah, Part One - Recitatief: For behold, darkness"
PERFORMER "Florilegium Musicum, Choir, Leusink"
INDEX 01 00:00:00
FILE "11 Messiah, Part One - Aria- The people that walked in the darkness.wav" WAVE
TRACK 11 AUDIO
TITLE "Messiah, Part One - Aria: The people that walked in the darkness"
PERFORMER "Florilegium Musicum, Choir, Leusink"
INDEX 01 00:00:00
FILE "12 Messiah, Part One - Koor- For unto us a child is born.wav" WAVE
TRACK 12 AUDIO
TITLE "Messiah, Part One - Koor: For unto us a child is born"
PERFORMER "Florilegium Musicum, Choir, Leusink"
INDEX 01 00:00:00
FILE "13 Messiah, Part One - Pifa.wav" WAVE
TRACK 13 AUDIO
TITLE "Messiah, Part One - Pifa"
PERFORMER "Florilegium Musicum, Choir, Leusink"
INDEX 01 00:00:00
FILE "14 Messiah, Part One - Recitatief- There were shepherds in the field.wav" WAVE
TRACK 14 AUDIO
TITLE "Messiah, Part One - Recitatief: There were shepherds in the field"
PERFORMER "Florilegium Musicum, Choir, Leusink"
INDEX 01 00:00:00
FILE "15 Messiah, Part One - Recitatief- And lo, the angel.wav" WAVE
TRACK 15 AUDIO
TITLE "Messiah, Part One - Recitatief: And lo, the angel"
PERFORMER "Florilegium Musicum, Choir, Leusink"
INDEX 01 00:00:00
FILE "16 Messiah, Part One - Recitatief- And the angel said.wav" WAVE
TRACK 16 AUDIO
TITLE "Messiah, Part One - Recitatief: And the angel said"
PERFORMER "Florilegium Musicum, Choir, Leusink"
INDEX 01 00:00:00
FILE "17 Messiah, Part One - Recitatief- And suddenly there was an angel.wav" WAVE
TRACK 17 AUDIO
TITLE "Messiah, Part One - Recitatief: And suddenly there was an angel"
PERFORMER "Florilegium Musicum, Choir, Leusink"
INDEX 01 00:00:00
FILE "18 Messiah, Part One - Koor- Glory to God.wav" WAVE
TRACK 18 AUDIO
TITLE "Messiah, Part One - Koor: Glory to God"
PERFORMER "Florilegium Musicum, Choir, Leusink"
INDEX 01 00:00:00
FILE "19 Messiah, Part One - Aria- Rejoice.wav" WAVE
TRACK 19 AUDIO
TITLE "Messiah, Part One - Aria: Rejoice"
PERFORMER "Florilegium Musicum, Choir, Leusink"
INDEX 01 00:00:00
FILE "20 Messiah, Part One - Recitatief- Then shall the eyes.wav" WAVE
TRACK 20 AUDIO
TITLE "Messiah, Part One - Recitatief: Then shall the eyes"
PERFORMER "Florilegium Musicum, Choir, Leusink"
INDEX 01 00:00:00
FILE "21 Messiah, Part One - Recitatief- He shall feed His flock.wav" WAVE
TRACK 21 AUDIO
TITLE "Messiah, Part One - Recitatief: He shall feed His flock"
PERFORMER "Florilegium Musicum, Choir, Leusink"
INDEX 01 00:00:00
FILE "22 Messiah, Part One - Koor- His yoke is easy and His burthen is light.wav" WAVE
TRACK 22 AUDIO
TITLE "Messiah, Part One - Koor: His yoke is easy and His burthen is light"
PERFORMER "Florilegium Musicum, Choir, Leusink"
INDEX 01 00:00:00
TRACK 23 AUDIO
TITLE "Messiah, Part Two - Koor: Behold the Lamb of God"
PERFORMER "Florilegium Musicum, Choir, Leusink"
INDEX 00 02:20:32
FILE "23 Messiah, Part Two - Koor- Behold the Lamb of God.wav" WAVE
INDEX 01 00:00:00
FILE "24 Messiah, Part Two - Aria- He was despised.wav" WAVE
TRACK 24 AUDIO
TITLE "Messiah, Part Two - Aria: He was despised"
PERFORMER "Florilegium Musicum, Choir, Leusink"
INDEX 01 00:00:00
CD2

скрытый текст

REM GENRE Classical
REM DATE 1993
REM DISCID CC112220
REM COMMENT "ExactAudioCopy v1.1"
CATALOG 0000000000000
PERFORMER "Florilegium Musicum, Choir, Leusink"
TITLE "Messiah [CD2]"
FILE "01 Messiah, Part Two - Koor- Surely He hath born.wav" WAVE
TRACK 01 AUDIO
TITLE "Messiah, Part Two - Koor: Surely He hath born"
PERFORMER "Florilegium Musicum, Choir, Leusink"
INDEX 01 00:00:00
FILE "02 Messiah, Part Two - Koor- And with His stripes.wav" WAVE
TRACK 02 AUDIO
TITLE "Messiah, Part Two - Koor: And with His stripes"
PERFORMER "Florilegium Musicum, Choir, Leusink"
INDEX 01 00:00:00
FILE "03 Messiah, Part Two - Koor- All we like sheep.wav" WAVE
TRACK 03 AUDIO
TITLE "Messiah, Part Two - Koor: All we like sheep"
PERFORMER "Florilegium Musicum, Choir, Leusink"
INDEX 01 00:00:00
FILE "04 Messiah, Part Two - Recitatief- All they that see Him.wav" WAVE
TRACK 04 AUDIO
TITLE "Messiah, Part Two - Recitatief: All they that see Him"
PERFORMER "Florilegium Musicum, Choir, Leusink"
INDEX 01 00:00:00
FILE "05 Messiah, Part Two - Koor- He trusted in God.wav" WAVE
TRACK 05 AUDIO
TITLE "Messiah, Part Two - Koor: He trusted in God"
PERFORMER "Florilegium Musicum, Choir, Leusink"
INDEX 01 00:00:00
FILE "06 Messiah, Part Two - Recitatief- Thy rebuke hath broken.wav" WAVE
TRACK 06 AUDIO
TITLE "Messiah, Part Two - Recitatief: Thy rebuke hath broken"
PERFORMER "Florilegium Musicum, Choir, Leusink"
INDEX 01 00:00:00
FILE "07 Messiah, Part Two - Aria- SBehold, and see.wav" WAVE
TRACK 07 AUDIO
TITLE "Messiah, Part Two - Aria: SBehold, and see"
PERFORMER "Florilegium Musicum, Choir, Leusink"
INDEX 01 00:00:00
FILE "08 Messiah, Part Two - Recitatief- He was cut off out.wav" WAVE
TRACK 08 AUDIO
TITLE "Messiah, Part Two - Recitatief: He was cut off out"
PERFORMER "Florilegium Musicum, Choir, Leusink"
INDEX 01 00:00:00
FILE "09 Messiah, Part Two - Aria- But Thou didst not leave.wav" WAVE
TRACK 09 AUDIO
TITLE "Messiah, Part Two - Aria: But Thou didst not leave"
PERFORMER "Florilegium Musicum, Choir, Leusink"
INDEX 01 00:00:00
FILE "10 Messiah, Part Two - Koor- Lift up your heads.wav" WAVE
TRACK 10 AUDIO
TITLE "Messiah, Part Two - Koor: Lift up your heads"
PERFORMER "Florilegium Musicum, Choir, Leusink"
INDEX 01 00:00:00
FILE "11 Messiah, Part Two - Recitatief- Unto which of the angels.wav" WAVE
TRACK 11 AUDIO
TITLE "Messiah, Part Two - Recitatief: Unto which of the angels"
PERFORMER "Florilegium Musicum, Choir, Leusink"
INDEX 01 00:00:00
FILE "12 Messiah, Part Two - Koor- Let all the angels of God.wav" WAVE
TRACK 12 AUDIO
TITLE "Messiah, Part Two - Koor: Let all the angels of God"
PERFORMER "Florilegium Musicum, Choir, Leusink"
INDEX 01 00:00:00
FILE "13 Messiah, Part Two - Aria- Thou art gone up on high.wav" WAVE
TRACK 13 AUDIO
TITLE "Messiah, Part Two - Aria: Thou art gone up on high"
PERFORMER "Florilegium Musicum, Choir, Leusink"
INDEX 01 00:00:00
FILE "14 Messiah, Part Two - Koor- The Lord gave the word.wav" WAVE
TRACK 14 AUDIO
TITLE "Messiah, Part Two - Koor: The Lord gave the word"
PERFORMER "Florilegium Musicum, Choir, Leusink"
INDEX 01 00:00:00
FILE "15 Messiah, Part Two - Aria- How beautiful are the feet.wav" WAVE
TRACK 15 AUDIO
TITLE "Messiah, Part Two - Aria: How beautiful are the feet"
PERFORMER "Florilegium Musicum, Choir, Leusink"
INDEX 01 00:00:00
FILE "16 Messiah, Part Two - Koor- Their sound is gone out.wav" WAVE
TRACK 16 AUDIO
TITLE "Messiah, Part Two - Koor: Their sound is gone out"
PERFORMER "Florilegium Musicum, Choir, Leusink"
INDEX 01 00:00:00
FILE "17 Messiah, Part Two - Aria- Why do the nations.wav" WAVE
TRACK 17 AUDIO
TITLE "Messiah, Part Two - Aria: Why do the nations"
PERFORMER "Florilegium Musicum, Choir, Leusink"
INDEX 01 00:00:00
FILE "18 Messiah, Part Two - Koor- Let us break.wav" WAVE
TRACK 18 AUDIO
TITLE "Messiah, Part Two - Koor: Let us break"
PERFORMER "Florilegium Musicum, Choir, Leusink"
INDEX 01 00:00:00
FILE "19 Messiah, Part Two - Recitatief- He that dwelleth.wav" WAVE
TRACK 19 AUDIO
TITLE "Messiah, Part Two - Recitatief: He that dwelleth"
PERFORMER "Florilegium Musicum, Choir, Leusink"
INDEX 01 00:00:00
FILE "20 Messiah, Part Two - Aria- Thou shalt break them.wav" WAVE
TRACK 20 AUDIO
TITLE "Messiah, Part Two - Aria: Thou shalt break them"
PERFORMER "Florilegium Musicum, Choir, Leusink"
INDEX 01 00:00:00
FILE "21 Messiah, Part Two - Koor- Hallelujah.wav" WAVE
TRACK 21 AUDIO
TITLE "Messiah, Part Two - Koor: Hallelujah"
PERFORMER "Florilegium Musicum, Choir, Leusink"
INDEX 01 00:00:00
TRACK 22 AUDIO
TITLE "Messiah, Part Three - Aria: I know that my Redeemer"
PERFORMER "Florilegium Musicum, Choir, Leusink"
INDEX 00 03:52:63
FILE "22 Messiah, Part Three - Aria- I know that my Redeemer.wav" WAVE
INDEX 01 00:00:00
FILE "23 Messiah, Part Three - Koor- Since by man came death.wav" WAVE
TRACK 23 AUDIO
TITLE "Messiah, Part Three - Koor: Since by man came death"
PERFORMER "Florilegium Musicum, Choir, Leusink"
INDEX 01 00:00:00
FILE "24 Messiah, Part Three - Recitatief- Behold I tell you a mystery.wav" WAVE
TRACK 24 AUDIO
TITLE "Messiah, Part Three - Recitatief: Behold I tell you a mystery"
PERFORMER "Florilegium Musicum, Choir, Leusink"
INDEX 01 00:00:00
FILE "25 Messiah, Part Three - Aria- The trumpet shall sound.wav" WAVE
TRACK 25 AUDIO
TITLE "Messiah, Part Three - Aria: The trumpet shall sound"
PERFORMER "Florilegium Musicum, Choir, Leusink"
INDEX 01 00:00:00
FILE "26 Messiah, Part Three - Recitatief- Then shall he brought.wav" WAVE
TRACK 26 AUDIO
TITLE "Messiah, Part Three - Recitatief: Then shall he brought"
PERFORMER "Florilegium Musicum, Choir, Leusink"
INDEX 01 00:00:00
FILE "27 Messiah, Part Three - Duet- O death, where is thy sting.wav" WAVE
TRACK 27 AUDIO
TITLE "Messiah, Part Three - Duet: O death, where is thy sting"
PERFORMER "Florilegium Musicum, Choir, Leusink"
INDEX 01 00:00:00
FILE "28 Messiah, Part Three - Koor- But thanks be to God.wav" WAVE
TRACK 28 AUDIO
TITLE "Messiah, Part Three - Koor: But thanks be to God"
PERFORMER "Florilegium Musicum, Choir, Leusink"
INDEX 01 00:00:00
FILE "29 Messiah, Part Three - Aria- If God be for us.wav" WAVE
TRACK 29 AUDIO
TITLE "Messiah, Part Three - Aria: If God be for us"
PERFORMER "Florilegium Musicum, Choir, Leusink"
INDEX 01 00:00:00
FILE "30 Messiah, Part Three - Koor- Worthy is the Lamb.wav" WAVE
TRACK 30 AUDIO
TITLE "Messiah, Part Three - Koor: Worthy is the Lamb"
PERFORMER "Florilegium Musicum, Choir, Leusink"
INDEX 01 00:00:00
FILE "31 Messiah, Part Three - Koor- Blessing and honour.wav" WAVE
TRACK 31 AUDIO
TITLE "Messiah, Part Three - Koor: Blessing and honour"
PERFORMER "Florilegium Musicum, Choir, Leusink"
INDEX 01 00:00:00
TRACK 32 AUDIO
TITLE "Messiah, Part Three - Koor: Amen"
PERFORMER "Florilegium Musicum, Choir, Leusink"
INDEX 00 02:02:41
FILE "32 Messiah, Part Three - Koor- Amen.wav" WAVE
INDEX 01 00:00:00
[teatrix.ru].t22740.torrent 
Торрент: Зарегистрирован [ 2016-03-21 00:32 ] · EBD2ECFCA81F2C8E68AF2305457F43F2ED444547

Скачать .torrent

Скачать

20 KB

Статус: проверено
Скачан: 2 раз
Размер: 656 MB
terms.php



Быстрый ответ

Имя:

      
Для отправки сообщений необходимо включить JavaScript
Показать сообщения:    

Текущее время: 05-Дек 13:31

Часовой пояс: UTC + 3


Вы можете начинать темы
Вы можете отвечать на сообщения
Вы не можете редактировать свои сообщения
Вы не можете удалять свои сообщения
Вы не можете голосовать в опросах
Вы не можете прикреплять файлы к сообщениям
Вы можете скачивать файлы