20 000 дней на Земле / 20,000 Days on Earth (Иэн Форсайт / Iain Forsyth, Джейн Поллард / Jane Pollard) [2014, Великобритания, Документальный, музыка, HDRip] MVO (1 канал) + Original Eng


Статистика раздачи [Обновить пиров]
Размер:  1.45 GB   |    Зарегистрирован:  8 месяцев 14 дней   |    Скачан:  0 раз

Полного источника не было: Никогда

 
   
 
 
 

[Цитировать]

20 000 дней на Земле / 20,000 Days on Earth
Страна: Великобритания
Жанр: Документальный, музыка
Год выпуска: 2014
Продолжительность: 01:33:21
Перевод: Профессиональный (многоголосый закадровый) 1 канал
Cубтитры: нет
Оригинальная аудиодорожка: английский
Режиссер: Иэн Форсайт / Iain Forsyth, Джейн Поллард / Jane Pollard
В ролях: Ник Кейв, Сьюзи Бик, Уоррен Эллис, Дариан Лидер, Рэй Уинстон, Бликса Баргельд, Кайли Миноуг, Артур Кейв, Эрл Кейв, Томас Уилдлер, Мартин Кэйси, Конуэй Сэвэдж, Бэрри Адамсон
Описание: Псевдодокументальный взгляд на настоящее, прошлое и будущее музыканта, писателя и уже не человека, но рукотворный миф - Ника Кейва.
Великое кино как таковое, обязательное всем неравнодушным к австралийскому гению
Сэмпл: http://multi-up.com/1080873
Качество видео: HDRip
Формат видео: AVI
Видео: MPEG4, XviD, 720x304 (2.35:1), 25.000 fps, 1 577 Kbps (0.288 bit/pixel)
Аудио: AC-3, 48.0 KHz, 2 ch, 192 Kbps, CBR - русский
Аудио 2: AC-3, 48.0 KHz, 6 ch, 448 Kbps, CBR - английский

MediaInfo

бщее
Полное имя : N:\20 000 дней на Земле.avi
Формат : AVI
Формат/Информация : Audio Video Interleave
Размер файла : 1,45 Гбайт
Продолжительность : 1 ч. 33 м.
Общий поток : 2231 Кбит/сек
Название фильма : 20 000 дней на Земле / 20,000 Days on Earth (2014)
Программа кодирования : VirtualDubMod 1.5.10.2 (build 2540/release)
Библиотека кодирования : VirtualDubMod build 2540/release
Авторское право : miha2154
Видео
Идентификатор : 0
Формат : MPEG-4 Visual
Профиль формата : Advanced Simple@L5
Параметр BVOP формата : 1
Параметр QPel формата : Нет
Параметр GMC формата : Без точки перехода
Параметр матрицы формата : Выборочная
Идентификатор кодека : XVID
Идентификатор кодека/Подсказка : XviD
Продолжительность : 1 ч. 33 м.
Битрейт : 1577 Кбит/сек
Ширина : 720 пикселей
Высота : 304 пикселя
Соотношение сторон : 2,35:1
Частота кадров : 25,000 кадров/сек
Цветовое пространство : YUV
Субдискретизация насыщенности : 4:2:0
Битовая глубина : 8 бит
Тип развёртки : Прогрессивная
Метод сжатия : С потерями
Бит/(Пиксели*Кадры) : 0.288
Размер потока : 1,03 Гбайт (71%)
Библиотека кодирования : XviD 65
Аудио #1
Идентификатор : 1
Формат : AC-3
Формат/Информация : Audio Coding 3
Расширение режима : CM (complete main)
Параметр Endianness формата : Big
Идентификатор кодека : 2000
Продолжительность : 1 ч. 33 м.
Вид битрейта : Постоянный
Битрейт : 192 Кбит/сек
Каналы : 2 канала
Расположение каналов : Front: L R
Частота : 48,0 КГц
Частота кадров : 31,250 кадров/сек (1536 spf)
Метод сжатия : С потерями
Размер потока : 128 Мбайт (9%)
Выравнивание : Разделение по промежуткам
Продолжительность промежутка : 40 мс. (1,00 видеокадр)
Время предзагрузки промежутка : 500 мс.
Заголовок : Профессиональный (многоголосый закадровый) 1 канал
Аудио #2
Идентификатор : 2
Формат : AC-3
Формат/Информация : Audio Coding 3
Расширение режима : CM (complete main)
Параметр Endianness формата : Big
Идентификатор кодека : 2000
Продолжительность : 1 ч. 33 м.
Вид битрейта : Постоянный
Битрейт : 448 Кбит/сек
Каналы : 6 каналов
Расположение каналов : Front: L C R, Side: L R, LFE
Частота : 48,0 КГц
Частота кадров : 31,250 кадров/сек (1536 spf)
Метод сжатия : С потерями
Размер потока : 299 Мбайт (20%)
Выравнивание : Разделение по промежуткам
Продолжительность промежутка : 40 мс. (1,00 видеокадр)
Время предзагрузки промежутка : 500 мс.
Заголовок : Английский

Скриншоты


[teatrix.ru].t22741.torrent 
Торрент: Зарегистрирован [ 2016-03-21 00:32 ] · E6066DF300260E65B25B10ACDE0594E4FD3E6509

Скачать .torrent

Скачать

15 KB

Статус: проверено
Скачан: 0 раз
Размер: 1.45 GB
terms.php



Быстрый ответ

Имя:

      
Для отправки сообщений необходимо включить JavaScript
Показать сообщения:    

Текущее время: 04-Дек 11:11

Часовой пояс: UTC + 3


Вы можете начинать темы
Вы можете отвечать на сообщения
Вы не можете редактировать свои сообщения
Вы не можете удалять свои сообщения
Вы не можете голосовать в опросах
Вы не можете прикреплять файлы к сообщениям
Вы можете скачивать файлы