Сергей Прокофьев - Золушка / Serguei Prokofiev – Cendrillon - Malandain Baller Biarritz (Тьерри Маланден / Thierry Malandain, Соня Парамо / Sonia Paramo) [2013, Modern ballet, DVB]


 

[Цитировать]

Сергей Прокофьев - Золушка
Serguei Prokofiev – Cendrillon- Год выпуска: 2013
Лейбл: Les Films Figures Libres
Страна-производитель: Франция
Жанр: Modern ballet
Продолжительность: 01:40:06
Режиссер фильма: Соня Парамо / Sonia Paramo
Хореограф: Тьерри Маланден / Thierry Malandain
Исполнители: Миюки Каней / Miyuki Kanei, Даниэль Визкайо / Daniel Vizcayo, Арно Мауй / Arnaud Mahouy
Malandain Baller Biarritz
Orchestre Symphonique d'Euskadi
Дирижер: Josep Caballé-DomenechОписание: Талантливый французский хореограф Т.Маланден рассказал популярную сказку на современный манер. Танцы поставлены в оригинальной стилистике: образная пластика органично переплетается с причудливой акробатикой. Одноактный спектакль с обилием новаций и буффонады замечательно исполняют 19 артистов труппы MALANDAIN BALLET BIARRITZ. Партии Золушки и Принца вдохновенно танцуют японка Миюки Каней и итальянец Даниэль Визкайо. Яркое впечатление производит полетный француз Арно Мауй в роли Учителя танцев. (Виктор Игнатов)

Треклист:

Акт первый
1. Вступление
2. Па-де-шаль
3. Золушка
4. Отец
5. Фея-нищенка
6. Поставщики и переодевание сестёр
7. Урок танца
8. Отъезд Мачехи и сестер на бал
9. Мечты Золушки о бале
10. Гавот
11. Второе появление Феи-нищенки
12. Вариация Феи весны
13. Монолог Феи лета
14. Кузнечики и стрекозы
15. Вариация Феи осени
16. Вариация Феи зимы
17. Прерванный отъезд
18. Сцена с часами
19. Отъезд Золушки на бал
Акт второй
20. Придворный танец
21. Паспье
22. Танец кавалеров (бурре)
23. Вариация Худышки
24. Вариация Кубышки
25. Придворный танец
26. Мазурка и выход Принца
27. Вариация четырёх сверстников Принца
28. Мазурка
29. Приезд Золушки на бал
30. Большой вальс
31. Прогулка
32. Вариация Золушки
33. Вариация Принца
34. Угощение гостей
35. Дуэт сестёр с апельсинами
36. Дуэт Принца и Золушки (Адажио)
37. Вальс-кода
38. Полночь
Акт третий
39. Принц и сапожники
40. Первый галоп принца
41. Соблазн
42. Второй галоп принца
43. Ориенталия
44. Третий галоп принца
45. Пробуждение Золушки
46. Утро после бала
47. Посещение Принца
48. Принц нашёл Золушку
49. Медленный вальс
50. Аморозо
Доп. информация: Hot Bird (13.0°E) TV5MONDE Europe DVB-S
Качество видео: DVB
Формат/Контейнер: MKV
Видео кодек: MPEG2
Аудио кодек: MP2
Видео поток: MPEG Video 2, 720x576@1024x576 (16:9), 25 fps, ~2871 kbps avg, 0.277 bit/pixel
Аудио поток: MPEG Audio 2, 2 ch, 48 kHz, 192 kbps

MediaInfo

Общее
Уникальный идентификатор : 239873292145545263708549118951240540200 (0xB475EA66159F7E4AAFFCE887AC10A028)
Полное имя : F:\My Torrents 3\[apreder]Cendrillon(2013)DVB.mkv
Формат : Matroska
Версия формата : Version 2
Размер файла : 2,19 Гбайт
Продолжительность : 1 ч. 40 м.
Режим общего битрейта : Переменный
Общий поток : 3125 Кбит/сек
Название фильма : Serguei Prokofiev – Cendrillon
Дата выпуска : 2013-00-00
Дата кодирования : UTC 2015-12-26 14:35:43
Программа кодирования : mkvmerge v8.6.1 ('Flying') 64bit
Библиотека кодирования : libebml v1.3.3 + libmatroska v1.4.4
Attachements : cover.jpg / cover_small.jpg
DIRECTOR : Thierry Malandain
GENRE : Modern ballet
KEYWORDS : rutracker.org
LAW_RATING : 16+
Видео
Идентификатор : 1
Формат : MPEG Video
Версия формата : Version 2
Профиль формата : Main@Main
Параметр BVOP формата : Да
Параметр матрицы формата : Выборочная
Параметр GOP формата : M=4, N=12
Format_Settings_PictureStructure : Frame
Идентификатор кодека : V_MPEG2
Идентификатор кодека/Информация : MPEG 1 or 2 Video
Продолжительность : 1 ч. 40 м.
Вид битрейта : Переменный
Битрейт : 2871 Кбит/сек
Ширина : 720 пикселей
Высота : 576 пикселей
Соотношение сторон : 16:9
Режим частоты кадров : Постоянный
Частота кадров : 25,000 кадров/сек
Стандарт вещания : PAL
Цветовое пространство : YUV
Субдискретизация насыщенности : 4:2:0
Битовая глубина : 8 бит
Тип развёртки : Чересстрочная
Порядок развёртки : Верхнее поле первое
Метод сжатия : С потерями
Бит/(Пиксели*Кадры) : 0.277
Временной код первого кадра : 00:00:00:00
Оригинал временного кода : Group of pictures header
Размер потока : 2,01 Гбайт (92%)
Default : Да
Forced : Нет
Аудио
Идентификатор : 2
Формат : MPEG Audio
Версия формата : Version 1
Профиль формата : Layer 2
Режим : Joint stereo
Расширение режима : Intensity Stereo + MS Stereo
Идентификатор кодека : A_MPEG/L2
Идентификатор кодека/Подсказка : MP2
Продолжительность : 1 ч. 40 м.
Вид битрейта : Постоянный
Битрейт : 192 Кбит/сек
Каналы : 2 канала
Частота : 48,0 КГц
Метод сжатия : С потерями
Размер потока : 137 Мбайт (6%)
Язык : French
Default : Да
Forced : Нет

Скриншоты


Резервные скриншоты


-

[Цитировать]

Подключилась только ради того, чтобы вспомнить кухню как это делается.
В итоге:
нет ни одного сида, а скачивание идет, притом, очень резво - загадка природы при отсутствии сидов, которых не было НИКОГДА!
В таблице проявилась и числюсь личером, стало интересно, когда скачаю, в какой перейду статус.
Как-то все очень зага-а-адочно!
Подожду результат, потом начнем разгадывать!

[Цитировать]

Уже объяснял. Сиды подключаются напрямую уже в вашем клиенте utorrent или любом другом. Скачивание идет ото всех источников найденных в интернете.


Показать сообщения:    

Текущее время: 06-Дек 22:54

Часовой пояс: UTC + 3


Вы не можете начинать темы
Вы не можете отвечать на сообщения
Вы не можете редактировать свои сообщения
Вы не можете удалять свои сообщения
Вы не можете голосовать в опросах
Вы не можете прикреплять файлы к сообщениям
Вы не можете скачивать файлы