Волшебный мир оперетты (Анна Моторная) [2015 г., Беларусь, оперетта, концерт, DVB] Белорусский государственный академический музыкальный театр


 

[Цитировать]

Волшебный мир оперетты
Белорусский государственный академический музыкальный театр
- Год выпуска: 2015
Страна: Беларусь
Жанр: оперетта, концерт
Продолжительность: 01:20:56-Режиссер: Анна Моторная
Исполнители:
  • солисты театра Наталья Гайда, Людмила Станевич, Алексей Кузьмин, Наталья Дементьева, Леся Лют, Дмитрий Якубович, Сергей Сутько, Виктор Циркунович, Артём Хомичёнок, Екатерина Станкевич, Ольга Железкая, Николай Русецкий
  • симфонический оркестр театра, дирижёр — Юрий Галяс-Описание:
    Желанная и неувядающая, оперетта — как женщина легка и игрива. Ее волшебный мир волнует и удивляет, одаривая теплом, нежностью и любовью. Пожалуй, оперетта немного похожа на добрую сказку, в которой неуместны обыденность и скука. Она рисует нам прелестные женские лица и горделивые фигуры аристократов, прекрасные картины роскошных балов и салонных забав. Ее непременные атрибуты — это шик и красота нарядов, блеск драгоценностей, запах духов и разлетающиеся брызги шампанского.
    Старую добрую оперетту многие считают несерьезным искусством, но ее прелесть и привлекательность для нас именно в этом задоре, ярких красках и бесшабашном веселье, где все препятствия преодолимы, а счастливый финал обязательно соединит влюбленных. И в этом нас убеждает магически притягательная, полная пьянящей любви к жизни музыка таких мастеров жанра, как Жак Оффенбах, Шарль Лекок, Ференц Легар, Имре Кальман, Иоганн Штраус…-Треклист:
    1. Наталья Дементьева — И. Кальман. Выходная ария Сильвы из оперетты «Сильва»
    2. Артём Хомичёнок — И. Штраус. Куплеты Баринкая из оперетты «Цыганский барон»
    3. Ольга Железкая — И. Штраус. Куплеты Адель из оперетты «Летучая мышь»
    4. Николай Русецкий — И. Кальман. Песня Шандора из оперетты «Дьявольский наездник»
    5. Леся Лют — И. Кальман. Ария Виолетты из оперетты «Фиалка Монмартра»
    6. И. Штраус. Полька «На охоте»
    7. Наталья Дементьева, Сергей Сутько — И. Кальман. Дуэт Теодоры и Мистера Икс из оперетты «Принцесса цирка»
    8. Екатерина Станкевич — Ш. Лекок. Болеро Микаэлы из оперетты «Рука и сердце»
    9. Виктор Циркунович — И. Штраус. Куплеты Зупана из оперетты «Цыганский барон»
    10. Наталья Гайда — К. Миллекер. Ария Жанны из оперетты «Мадам Дюбарри»
    11. Николай Русецкий — Ф. Легар. Ария Су-Шонга из оперетты «Страна улыбок»
    12. Ольга Железкая — И. Дунаевский. Песенка Пепиты из оперетты «Вольный ветер»
    13. Сергей Сутько — И. Кальман. Чардаш Тассило из оперетты «Марица»
    14. Ж. Оффенбах. Кан-Кан
    15. Екатерина Станкевич — Ф. Легар. Ария Джудитты из оперетты «Джудитта»
    16. Наталья Дементьева, Артём Хомичёнок — Ф. Легар. Дуэт Ганны и Данило из оперетты «Весёлая вдова»
    17. Дмитрий Якубович — И. Кальман. Куплеты Бони из оперетты «Сильва»
    18. Людмила Станевич, Алексей Кузьмин — И. Кальман. Дуэт Каролины и Пеликана из оперетты «Принцесса цирка»
    19. Виктор Циркунович — Ф. Легар. Куплеты Негуша из оперетты «Весёлая вдова»
    20. Наталья Гайда — Ш. Лекок. Ария Габриэль из оперетты «Зелёный остров»
    21. Артисты БГАМТа — И. Кальман. Финал «Звёзды театра сияют для вас» из оперетты «Баядера»-Доп. информация: ремукс записи потока *.ts в *.mkv программой VideoReDo.
    Запись концертной программы состоялась 27 ноября 2015 г. в Дворце культуры г. Молодечно.
    -Качество: DVB
    Формат: MKV
    Видео поток: AVC (H.264), 720x576@785x576 (4:3), анаморф, 25 fps, 2207 kbps
    Аудио поток: MP2, 256 kbps, 2 channels, 48 kHz

    MediaInfo

    General
    Unique ID : 301602867874797308466759758273707143493 (0xE2E69975E748B5B21982849F7D027145)
    Complete name : D:\Волшебный мир оперетты_2015.mkv
    Format : Matroska
    Format version : Version 2
    File size : 1.42 GiB
    Duration : 1h 20mn
    Overall bit rate : 2 513 Kbps
    Writing application : Lavf52.64.2
    Writing library : Lavf52.64.2
    Video
    ID : 1
    Format : AVC
    Format/Info : Advanced Video Codec
    Format profile : Main@L3.0
    Format settings, CABAC : Yes
    Format settings, ReFrames : 4 frames
    Format settings, GOP : M=4, N=24
    Codec ID : V_MPEG4/ISO/AVC
    Duration : 1h 20mn
    Bit rate : 2 207 Kbps
    Width : 720 pixels
    Height : 576 pixels
    Display aspect ratio : 4:3
    Original display aspect ratio : 4:3
    Frame rate mode : Constant
    Frame rate : 25.000 fps
    Standard : PAL
    Color space : YUV
    Chroma subsampling : 4:2:0
    Bit depth : 8 bits
    Scan type : MBAFF
    Scan order : Top Field First
    Bits/(Pixel*Frame) : 0.213
    Stream size : 1.25 GiB (88%)
    Default : Yes
    Forced : No
    Color primaries : BT.601 PAL
    Transfer characteristics : BT.470 System B, BT.470 System G
    Matrix coefficients : BT.601
    Color range : Limited
    Audio
    ID : 2
    Format : MPEG Audio
    Format version : Version 1
    Format profile : Layer 2
    Codec ID : A_MPEG/L2
    Codec ID/Hint : MP2
    Duration : 1h 20mn
    Bit rate mode : Constant
    Bit rate : 256 Kbps
    Channel(s) : 2 channels
    Sampling rate : 48.0 KHz
    Compression mode : Lossy
    Stream size : 148 MiB (10%)
    Language : English
    Default : Yes
    Forced : No



  • Показать сообщения:    

    Текущее время: 08-Дек 09:03

    Часовой пояс: UTC + 3


    Вы не можете начинать темы
    Вы не можете отвечать на сообщения
    Вы не можете редактировать свои сообщения
    Вы не можете удалять свои сообщения
    Вы не можете голосовать в опросах
    Вы не можете прикреплять файлы к сообщениям
    Вы не можете скачивать файлы