Два вечера с Константином Райкиным. Вечер первый [2015 г., Литературные чтения, WEB-DLRip] Московская государственная академическая филармония


 

[Цитировать]

Два вечера с Константином Райкиным. Вечер первый Московская государственная филармония.
Концертный зал имени П. И. Чайковского.

Год выпуска: 2015.
Жанр: Литературные чтения.
Продолжительность: 01:55:32.
Исполнитель: Константин Райкин (художественное слово).
Описание:
В программе: Александр Пушкин, Осип Мандельштам, Давид Самойлов, Николай Заболоцкий, Борис Пастернак, Николай Рубцов.
Дополнительная информация:
Страна: Россия .
Запись из концертного зала имени Чайковского.
Академический симфонический оркестр Московской филармонии.

Абонемент №53:
Два вечера с Константином Райкиным.

Концерт состоялся 8 ноября 2015 года.
Вечер второй здесь
Релиз
Рип lesik689.

Качество видео:...WEB-DLRip
Формат:.................AVI
Видео:..720x400 (1.80:1), 25 fps, XviD build 73 ~1508 kbps avg, 0.21 bit/pixel
Аудио:..44.100 kHz, MPEG Layer 3, 2 ch, ~128.00 kbps avg

Отчет Media Info

General
Complete name : Dva.vechera.s.Konstantinom.Raykinym.Vecher_1.KZCh.2015.XviD.WEB-DLRip.fenixclub.avi
Format : AVI
Format/Info : Audio Video Interleave
File size : 1.33 GiB
Duration : 1h 55mn
Overall bit rate : 1 646 Kbps
Video
ID : 0
Format : MPEG-4 Visual
Format profile : Advanced Simple@L5
Format settings, BVOP : 2
Format settings, QPel : No
Format settings, GMC : No warppoints
Format settings, Matrix : Default (MPEG)
Codec ID : XVID
Codec ID/Hint : XviD
Duration : 1h 55mn
Bit rate : 1 509 Kbps
Width : 720 pixels
Height : 400 pixels
Display aspect ratio : 16:9
Frame rate : 25.000 fps
Color space : YUV
Chroma subsampling : 4:2:0
Bit depth : 8 bits
Scan type : Progressive
Compression mode : Lossy
Bits/(Pixel*Frame) : 0.210
Stream size : 1.22 GiB (92%)
Writing library : XviD 73
Audio
ID : 1
Format : MPEG Audio
Format version : Version 1
Format profile : Layer 3
Mode : Joint stereo
Mode extension : MS Stereo
Codec ID : 55
Codec ID/Hint : MP3
Duration : 1h 55mn
Bit rate mode : Constant
Bit rate : 128 Kbps
Channel(s) : 2 channels
Sampling rate : 44.1 KHz
Compression mode : Lossy
Stream size : 106 MiB (8%)
Alignment : Split accross interleaves
Interleave, duration : 40 ms (1.00 video frame)
Interleave, preload duratio : 500 ms.

Скриншоты

Альтернативный хост




Показать сообщения:    

Текущее время: 08-Дек 07:08

Часовой пояс: UTC + 3


Вы не можете начинать темы
Вы не можете отвечать на сообщения
Вы не можете редактировать свои сообщения
Вы не можете удалять свои сообщения
Вы не можете голосовать в опросах
Вы не можете прикреплять файлы к сообщениям
Вы не можете скачивать файлы