Andrea Bocelli. Cinema [2015, Classical crossover/Easy listening/Latin pop/Opera/Operatic pop/Pop/Vocal/Traditional pop, HDTV 1080i]


 

[Цитировать]

Andrea Bocelli. Cinema
Жанр: Classical crossover/Easy listening/Latin pop/Opera/Operatic pop/Pop/Vocal/Traditional pop
Продолжительность: 01:24:54
Год выпуска: 2015
Описание: Выступление легендарного итальянского тенора, автора и исполнителя Андреа Бочелли с музыкальными темами из фильмов мирового кинематографа на сцене Dolby Theatre в Лос-Анжелесе 2015 sep18.
В концерте приняли участие мировые звезды музыки, кинематографа, телевидения - David Foster, Ariana Grande, Nicole Scherzinger, John Travolta, Ali MacGraw, Ryan O’Neal, Andy Garcia.
Доп. информация: Собственная запись со спутникового канала Een 2015 dec27
Треклист: Maria
Se ''Nuovo Cinema Paradiso''
Moon River
Cheek To Cheek (duet with Veronica Berti)
Be My Love
E Piu Ti Penso (duet with Ariana Grande)
Brucia La Terra
La Chanson De Lara
Mi Mancherai
Historia De Amor (Where do I Begin)
Por Una Cabeza
No Llores Por Mi Argentina (duet with Nicole Scherzinger)
The Music Of The Night
L'amore E Una Cosa Meravigliosa
Sorridi Omore Vai
Nelle Tue Mani (Now We Are Free)
Качество: HDTV 1080i
Контейнер: TS
Видео кодек: H.264
Аудио кодек: MP2
Видео: Mpeg-4 AVC, 1920x1080, 5235 kbps, 25 fps
Аудио: MP2, 192 kbps, 48 kHz, stereo
Аудио 2: MP2, 192 kbps, 48 kHz, stereo

Отчёт MediaInfo / BDInfo

General
ID : 1 (0x1)
Complete name : E:\Downloads\Andrea Bocelli. Cinema 2015.ts
Format : MPEG-TS
File size : 3.51 GiB
Duration : 1h 24mn
Overall bit rate mode : Variable
Overall bit rate : 5 916 Kbps
Video
ID : 515 (0x203)
Menu ID : 21025 (0x5221)
Format : AVC
Format/Info : Advanced Video Codec
Format profile : High@L4
Format settings, CABAC : Yes
Format settings, ReFrames : 3 frames
Format settings, GOP : M=4, N=28
Codec ID : 27
Duration : 1h 24mn
Bit rate : 5 236 Kbps
Width : 1 920 pixels
Height : 1 080 pixels
Display aspect ratio : 16:9
Frame rate : 25.000 fps
Standard : Component
Color space : YUV
Chroma subsampling : 4:2:0
Bit depth : 8 bits
Scan type : Interlaced
Scan order : Top Field First
Bits/(Pixel*Frame) : 0.101
Stream size : 3.10 GiB (88%)
Color range : Limited
Color primaries : BT.709
Transfer characteristics : BT.709
Matrix coefficients : BT.709
Audio #1
ID : 103 (0x67)
Menu ID : 21025 (0x5221)
Format : MPEG Audio
Format version : Version 1
Format profile : Layer 2
Codec ID : 3
Duration : 1h 24mn
Bit rate mode : Constant
Bit rate : 192 Kbps
Channel(s) : 2 channels
Sampling rate : 48.0 KHz
Compression mode : Lossy
Delay relative to video : -120ms
Stream size : 117 MiB (3%)
Language : Dutch
Audio #2
ID : 104 (0x68)
Menu ID : 21025 (0x5221)
Format : MPEG Audio
Format version : Version 1
Format profile : Layer 2
Codec ID : 3
Duration : 1h 24mn
Bit rate mode : Constant
Bit rate : 192 Kbps
Channel(s) : 2 channels
Sampling rate : 48.0 KHz
Compression mode : Lossy
Delay relative to video : -120ms
Stream size : 117 MiB (3%)
Language : Multiple languages
Text
ID : 105 (0x69)-100
Menu ID : 21025 (0x5221)
Format : Teletext
Language : Dutch
Menu
ID : 2725 (0xAA5)
Menu ID : 21025 (0x5221)
Duration : 1h 24mn
List : 515 (0x203) (AVC) / 103 (0x67) (MPEG Audio, Dutch) / 104 (0x68) (MPEG Audio, Multiple languages) / 105 (0x69) ()
Language : / Dutch / Multiple languages

Скриншоты




Показать сообщения:    

Текущее время: 08-Дек 09:04

Часовой пояс: UTC + 3


Вы не можете начинать темы
Вы не можете отвечать на сообщения
Вы не можете редактировать свои сообщения
Вы не можете удалять свои сообщения
Вы не можете голосовать в опросах
Вы не можете прикреплять файлы к сообщениям
Вы не можете скачивать файлы