(Classical) Чайковский - Piano Concerto No.1; Grieg - Piano Concerto (Jablonski, Maag) - 1994, FLAC (image+.cue) lossless


Статистика раздачи [Обновить пиров]
Размер:  347 MB   |    Зарегистрирован:  8 месяцев 14 дней   |    Скачан:  0 раз

Полного источника не было: Никогда

 
   
 
 
 

[Цитировать]

Tchaikovsky - Piano Concerto No.1; Grieg - Piano Concerto (Jablonski, Maag)
Жанр: Classical
Страна-производитель диска: Germany
Год издания диска: 1994
Издатель (лейбл): Decca
Номер по каталогу: 443 174-2
Дата записи: 6-7 July 1993
Аудиокодек: FLAC
Тип рипа: image+.cue
Битрейт аудио: lossless
Продолжительность: 67.56
Источник: собственный рип
Наличие сканов в содержимом раздачи: да
Треклист:
Tchaikovsky - Piano Concerto No.1 in B-flat minor, Op.23
1. I. Allegro non troppo e molto maestoso
2. II. Andantino semplice
3. III. Allegro con fuoco
Grieg - Piano Concerto in A minor, Op.16
4. I. Allegro molto moderato
5. II. Adagio
6. III. Allegro moderato molto e marcato
Исполнители:
Peter Jablonski (pf.)
The Philharmonia Orchestra / Peter Maag

Лог создания рипа

Exact Audio Copy V1.0 beta 3 from 29. August 2011
EAC extraction logfile from 20. October 2015, 16:11
Tchaikovsky, Grieg; Philharmonia Orchestra, Peter Maag, Peter Jablonski / Tchaikovsky: Piano Concerto No. 1 / Grieg: Piano Concerto
Used drive : TSSTcorpCDDVDW SH-224DB Adapter: 0 ID: 0
Read mode : Secure
Utilize accurate stream : Yes
Defeat audio cache : No
Make use of C2 pointers : Yes
Read offset correction : 6
Overread into Lead-In and Lead-Out : No
Fill up missing offset samples with silence : Yes
Delete leading and trailing silent blocks : No
Null samples used in CRC calculations : Yes
Used interface : Native Win32 interface for Win NT & 2000
Used output format : User Defined Encoder
Selected bitrate : 896 kBit/s
Quality : High
Add ID3 tag : No
Command line compressor : C:\Users\멀티22\Desktop\새 폴더\App\EAC\Flac\flac.exe
Additional command line options : -8 -V -T "ARTIST=%artist%" -T "TITLE=%title%" -T "ALBUM=%albumtitle%" -T "DATE=%year%" -T "TRACKNUMBER=%tracknr%" -T "GENRE=%genre%" -T "PERFORMER=%albuminterpret%" -T "COMPOSER=%composer%" %haslyrics%–tag-from-file=LYRICS="%lyricsfile%"%haslyrics% -T "ALBUMARTIST=%albumartist%" -T "DISCNUMBER=%cdnumber%" -T "TOTALDISCS=%totalcds%" -T "TOTALTRACKS=%numtracks%" -T "COMMENT=%comment%" %source% -o %dest%
TOC of the extracted CD
Track | Start | Length | Start sector | End sector
---------------------------------------------------------
1 | 0:00.32 | 21:35.00 | 32 | 97156
2 | 21:35.32 | 7:40.25 | 97157 | 131681
3 | 29:15.57 | 7:05.63 | 131682 | 163619
4 | 36:21.45 | 13:58.37 | 163620 | 226506
5 | 50:20.07 | 7:00.03 | 226507 | 258009
6 | 57:20.10 | 10:36.10 | 258010 | 305719
Range status and errors
Selected range
Filename C:\Users\멀티22\Desktop\새 폴더\CDImage.wav
Peak level 100.0 %
Extraction speed 6.8 X
Range quality 100.0 %
Test CRC 74C60362
Copy CRC 74C60362
Copy OK
No errors occurred
AccurateRip summary
Track 1 accurately ripped (confidence 9) [DE9E4FD5] (AR v2)
Track 2 accurately ripped (confidence 10) [6E18E713] (AR v2)
Track 3 accurately ripped (confidence 10) [0A77424A] (AR v2)
Track 4 accurately ripped (confidence 10) [38BF039C] (AR v2)
Track 5 accurately ripped (confidence 10) [8D3A9E73] (AR v2)
Track 6 accurately ripped (confidence 10) [C7796E7B] (AR v2)
All tracks accurately ripped
End of status report
---- CUETools DB Plugin V2.1.3
[CTDB TOCID: 2QKjXLa9y2UpId0Fo91ur3_5T2w-] found, Submit result: discs with pregaps not supported in this protocol version
[0c6172bd] (1/1) No match
==== Log checksum A5EF9DC2CF66DD279A454D3F3E8821FD229B8D1E30F365C563B5438C84FBD2F6 ====

Содержание индексной карты (.CUE)

REM DATE 1994
REM DISCID 4B0FEC06
REM COMMENT "ExactAudioCopy v1.0b3"
CATALOG 0028944317428
PERFORMER "Tchaikovsky, Grieg; Philharmonia Orchestra, Peter Maag, Peter Jablonski"
TITLE "Tchaikovsky: Piano Concerto No. 1 / Grieg: Piano Concerto"
FILE "CDImage.flac" WAVE
TRACK 01 AUDIO
TITLE "Piano Concerto No. 1 in B-flat minor, Op. 23: I. Allegro non troppo e molto m..."
PERFORMER "Пётр Ильич Чайковский"
ISRC GBFO79310431
INDEX 00 00:00:00
INDEX 01 00:00:32
TRACK 02 AUDIO
TITLE "Piano Concerto No. 1 in B-flat minor, Op. 23: II. Andantino semplice"
PERFORMER "Пётр Ильич Чайковский"
ISRC GBFO79310432
INDEX 00 21:32:20
INDEX 01 21:35:32
TRACK 03 AUDIO
TITLE "Piano Concerto No. 1 in B-flat minor, Op. 23: III. Allegro con fuoco"
PERFORMER "Пётр Ильич Чайковский"
ISRC GBFO79310433
INDEX 00 29:11:32
INDEX 01 29:15:57
TRACK 04 AUDIO
TITLE "Piano Concerto in A minor, Op. 16: I. Allegro molto moderato"
PERFORMER "Edvard Grieg"
ISRC GBFO79310441
INDEX 00 36:13:07
INDEX 01 36:21:45
TRACK 05 AUDIO
TITLE "Piano Concerto in A minor, Op. 16: II. Adagio"
PERFORMER "Edvard Grieg"
ISRC GBFO79310442
INDEX 00 50:15:32
INDEX 01 50:20:07
TRACK 06 AUDIO
TITLE "Piano Concerto in A minor, Op. 16: III. Allegro moderato molto e marcato"
PERFORMER "Edvard Grieg"
ISRC GBFO79319443
INDEX 01 57:20:10
[teatrix.ru].t22750.torrent 
Торрент: Зарегистрирован [ 2016-03-21 00:48 ] · 26A563391739A49AB1A5CB4075E81B8A8039ED9B

Скачать .torrent

Скачать

15 KB

Статус: проверено
Скачан: 0 раз
Размер: 347 MB
terms.php



Быстрый ответ

Имя:

      
Для отправки сообщений необходимо включить JavaScript
Показать сообщения:    

Текущее время: 04-Дек 17:19

Часовой пояс: UTC + 3


Вы можете начинать темы
Вы можете отвечать на сообщения
Вы не можете редактировать свои сообщения
Вы не можете удалять свои сообщения
Вы не можете голосовать в опросах
Вы не можете прикреплять файлы к сообщениям
Вы можете скачивать файлы