Сияние / Ясновидящие / Сияющие / The Shining (Стэнли Кубрик / Stanley Kubrick) [1980, Великобритания, драма, мистика, DVDRip] [Полная версия / Unrated US Cut] [FullScreen 4X3] AVO (Володарский, Гаврилов-ранний) + VO + Sub Eng + Original Eng


Статистика раздачи [Обновить пиров]
Размер:  3.21 GB   |    Зарегистрирован:  8 месяцев 19 дней   |    Скачан:  0 раз

Полного источника не было: Никогда

 
   
 
 
 

[Цитировать]

Сияние / Ясновидящие / Сияющие / The Shining
полная версия / Unrated US Cut / FullScreen [4X3]
Страна: Великобритания
Жанр: драма, мистика
Год выпуска: 1980
Продолжительность: 02:23:46
Перевод 1: Авторский (одноголосый закадровый) Леонида Володарского на полную версию / Сияние /
Перевод 2: Авторский (одноголосый закадровый) Андрея Гаврилова (его ранний перевод) на короткую версию / Ясновидящие /
Перевод 3: Одноголосый закадровый (из середины 90х) на короткую версию / Сияющие /
Cубтитры: английские + русские на пропуски перевода
Оригинальная аудиодорожка: английский
Режиссер: Стэнли Кубрик / Stanley Kubrick
В ролях: Джек Николсон /Jack Nicholson/, Шелли Дюволл /Shelley Duvall/, Дэнни Ллойд /Danny Lloyd/, Скэтман Крозерс /Scatman Crothers/, Энн Джексон /Anne Jackson/, Тони Бертон /Tony Burton/, Барри Нелсон /Barry Nelson/, Филип Стоун /Philip Stone/, Джо Теркел /Joe Turkel/
Композиторы: Кшиштоф Пендерецки /Krzysztof Penderecki/, Уэнди Карлос /Wendy Carlos/, Рэйчел Элкинд /Rachel Elkind/, Гиорги Лигети /Gyorgi Ligeti/, Бела Барток /Bela Bartok/,
Гектор Берлиоз /Hector Berlioz/: Symphonie Fantastique, Op. 14 - V. Songe d'une nuit du Sabbat, Dies Irae
Рецензия Михаила Иванова: Экранизация триллера Стивена Кинга. Писатель (Николсон) соглашается провести зиму вместе со своими женой и сыном в отдаленном и отрезанном от мира горном, курортном отеле в роли сторожа. С этим местом связана таинственная история. По мере развития сюжета мистика подтачивает разум писателя, и он сходит с ума. Глядеть на это жутко, особенно когда обезумевший литератор отбрасывает пишущую машинку и начинает бегать за родными с топором. Все сторожа до него убивали членов своей семьи и самих себя, а отель населен призраками. До сих пор картина остается самой мощной экранизацией романа, а игру Николсона можно назвать только выдающейся. Один из моих самых любимых фильмов. Особенно врезаются в память первые кадры зимней, горной дороги.
Качество видео: DVDRip >> Сэмпл
Формат видео: AVI
Видео: 640x480 (1.33:1), 23.976 fps, XviD build 50 ~2134 kbps avg, 0.29 bit/pixel - исходник от camel
Аудио 1: 48 kHz, AC3 Dolby Digital, 2/0 (L,R) ch, ~224 kbps - Володарский, из коллекции яверь
Аудио 2: 48 kHz, AC3 Dolby Digital, 2/0 (L,R) ch, ~224 kbps - Гаврилов, из моей коллекции
Аудио 3: 48 kHz, AC3 Dolby Digital, 2/0 (L,R) ch, ~224 kbps - неизвестный, из моей коллекции
Аудио 4: 48 kHz, AC3 Dolby Digital, 3/2 (L,C,R,l,r) + LFE ch, ~384 kbps - english (отдельно)
Формат субтитров: softsub (SRT)

MediaInfo

Формат : AVI
Формат/Информация : Audio Video Interleave
Профиль формата : OpenDML
Размер файла : 2,82 Гбайт
Продолжительность : 2 ч. 23 м.
Общий поток : 2813 Кбит/сек
Название фильма : The Shining (1980)
Программа кодирования : VirtualDubMod 1.5.10.3 | www.virtualdub-fr.org || (build 2550/release)
Библиотека кодирования : VirtualDubMod build 2550/release
Правообладатель : karlll
Видео
Идентификатор : 0
Формат : MPEG-4 Visual
Профиль формата : Advanced Simple@L5
Параметр BVOP формата : 2
Параметр QPel формата : Нет
Параметр GMC формата : Без точки перехода
Параметр матрицы формата : Default (H.263)
Идентификатор кодека : XVID
Идентификатор кодека/Подсказка : XviD
Продолжительность : 2 ч. 23 м.
Битрейт : 2120 Кбит/сек
Ширина : 640 пикселей
Высота : 480 пикселей
Соотношение сторон : 4:3
Частота кадров : 23,976 кадра/сек
Цветовое пространство : YUV
Субдискретизация насыщенности : 4:2:0
Битовая глубина : 8 бит
Тип развёртки : Прогрессивная
Метод сжатия : С потерями
Бит/(Пиксели*Кадры) : 0.288
Размер потока : 2,13 Гбайт (75%)
Библиотека кодирования : XviD 1.2.1 (UTC 2008-12-04)
Аудио #1
Идентификатор : 1
Формат : AC-3
Формат/Информация : Audio Coding 3
Расширение режима : CM (complete main)
Параметр Endianness формата : Big
Идентификатор кодека : 2000
Продолжительность : 2 ч. 23 м.
Вид битрейта : Постоянный
Битрейт : 224 Кбит/сек
Каналы : 2 канала
Расположение каналов : Front: L R
Частота : 48,0 КГц
Битовая глубина : 16 бит
Метод сжатия : С потерями
Размер потока : 230 Мбайт (8%)
Выравнивание : Разделение по промежуткам
Продолжительность промежутка : 42 мс. (1,00 видеокадр)
Время предзагрузки промежутка : 500 мс.
Заголовок : Volodarskiy
Аудио #2
Идентификатор : 2
Формат : AC-3
Формат/Информация : Audio Coding 3
Расширение режима : CM (complete main)
Параметр Endianness формата : Big
Идентификатор кодека : 2000
Продолжительность : 2 ч. 23 м.
Вид битрейта : Постоянный
Битрейт : 224 Кбит/сек
Каналы : 2 канала
Расположение каналов : Front: L R
Частота : 48,0 КГц
Битовая глубина : 16 бит
Метод сжатия : С потерями
Размер потока : 230 Мбайт (8%)
Выравнивание : Разделение по промежуткам
Продолжительность промежутка : 42 мс. (1,00 видеокадр)
Время предзагрузки промежутка : 500 мс.
Заголовок : Gavrilov
Аудио #3
Идентификатор : 3
Формат : AC-3
Формат/Информация : Audio Coding 3
Расширение режима : CM (complete main)
Параметр Endianness формата : Big
Идентификатор кодека : 2000
Продолжительность : 2 ч. 23 м.
Вид битрейта : Постоянный
Битрейт : 224 Кбит/сек
Каналы : 2 канала
Расположение каналов : Front: L R
Частота : 48,0 КГц
Битовая глубина : 16 бит
Метод сжатия : С потерями
Размер потока : 230 Мбайт (8%)
Выравнивание : Разделение по промежуткам
Продолжительность промежутка : 42 мс. (1,00 видеокадр)
Время предзагрузки промежутка : 500 мс.
Заголовок : Neizvestniy

Скриншоты

[teatrix.ru].t22754.torrent 
Торрент: Зарегистрирован [ 2016-03-21 00:47 ] · 06E6F148A59356ED44B251E61F51E7AD29DC1DF0

Скачать .torrent

Скачать

17 KB

Статус: проверено
Скачан: 0 раз
Размер: 3.21 GB
terms.php



Быстрый ответ

Имя:

      
Для отправки сообщений необходимо включить JavaScript
Показать сообщения:    

Текущее время: 09-Дек 14:40

Часовой пояс: UTC + 3


Вы можете начинать темы
Вы можете отвечать на сообщения
Вы не можете редактировать свои сообщения
Вы не можете удалять свои сообщения
Вы не можете голосовать в опросах
Вы не можете прикреплять файлы к сообщениям
Вы можете скачивать файлы