Лобстер / The Lobster (Йоргос Лантимос / Yorgos Lanthimos) [2015, Ирландия, Великобритания, Греция, Франция, Нидерланды, США, антиутопия, фантастика, драма, комедия, WEB-DLRip] Sub Rus + DVO + Original Eng


Статистика раздачи [Обновить пиров]
Размер:  1.61 GB   |    Зарегистрирован:  8 месяцев 17 дней   |    Скачан:  0 раз

Полного источника не было: Никогда

 
   
 
 
 

[Цитировать]

Лобстер / The Lobster
Страна: Ирландия, Великобритания, Греция, Франция, Нидерланды, США
Жанр: антиутопия, фантастика, драма, комедия
Год выпуска: 2015
Продолжительность: 01:56:14
Перевод: Субтитры
Перевод: Любительский (двухголосый, закадровый) отдельным файлом
Cубтитры: русские (warklap)
Оригинальная аудиодорожка: английский

Режиссер: Йоргос Лантимос / Yorgos Lanthimos
В ролях: Колин Фаррелл, Рэйчел Вайс, Джессика Барден, Оливия Колман, Эшли Дженсен, Ариана Лабед, Аггелики Папоулья, Джон Си Райли, Леа Сейду, Майкл Смайли
Описание: История любви, которая разворачивается в ближайшем будущем, где одиноких людей арестовывают и отправляют в жуткий отель. Там они обязаны найти себе пару за 45 дней. Если им это не удается, то их превращают в животное и отпускают в лес.
Качество видео: WEB-DLRip
Формат видео: AVI
Видео: 720x400 (1.80:1), 24 fps, XviD build 73 ~1402 kbps avg, 0.20 bit/pixel
Аудио: 48 kHz, AC3 Dolby Digital, 3/2 (L,C,R,l,r) + LFE ch, ~384 kbps - оригинал
Аудио: 48 kHz, AC3 Dolby Digital, 2/0 (L,R) ch, ~192 kbps - двухголосый (отдельным файлом)

Фрагмент субтитров

551
00:44:43,161 --> 00:44:44,461
Привет.
552
00:44:44,462 --> 00:44:48,093
Наверное ты в ванной,
потому не слышишь как звонит телефон
553
00:44:48,094 --> 00:44:50,793
Нет ничего лучше холодного душа с утра.
554
00:44:51,463 --> 00:44:56,923
Что ж, перезвоню тебе позже, когда ты закончишь с душем.
555
00:44:57,631 --> 00:44:59,174
Поговорим позже.
556
00:44:59,811 --> 00:45:01,111
Пока.
557
00:45:04,498 --> 00:45:05,849
Не против, если я присоединюсь?
558
00:45:14,904 --> 00:45:16,204
Любите мартини
559
00:46:13,619 --> 00:46:16,794
Думаю мы подходим друг другу
Да, я тоже так считаю.
560
00:46:20,060 --> 00:46:22,262
Ключи от комнаты для двоих, пожалуйста.
561
00:46:30,489 --> 00:46:33,810
Я желаю вам удачи, мы все желаем вам удачи
562
00:46:49,078 --> 00:46:52,315
Тебе лучше спится на левой половине кровати
или на правой?
563
00:46:52,316 --> 00:46:56,761
На правой, а тебе?
На левой. Отлично.
564
00:46:58,183 --> 00:47:01,027
Мне выключить свет или ты будешь читать?
565
00:47:01,028 --> 00:47:04,459
Я буду читать, свет тебе мешает?
Нет.
566
00:47:04,460 --> 00:47:06,893
Меня не беспокоит свет или шум.
567
00:47:07,500 --> 00:47:09,087
Я сплю крепко.

MediaInfo

Общее
Полное имя : H:\The.Lobster.2015.web-dlrip_[1.46].avi
Формат : AVI
Формат/Информация : Audio Video Interleave
Размер файла : 1,46 Гбайт
Продолжительность : 1 ч. 56 м.
Общий поток : 1796 Кбит/сек
Программа кодирования : VirtualDubMod 1.5.10.3 | www.virtualdub-fr.org || (build 2550/release)
Библиотека кодирования : VirtualDubMod build 2550/release
Видео
Идентификатор : 0
Формат : MPEG-4 Visual
Профиль формата : Advanced Simple@L5
Параметр BVOP формата : 1
Параметр QPel формата : Нет
Параметр GMC формата : Без точки перехода
Параметр матрицы формата : Выборочная
Идентификатор кодека : XVID
Идентификатор кодека/Подсказка : XviD
Продолжительность : 1 ч. 56 м.
Битрейт : 1403 Кбит/сек
Ширина : 720 пикселей
Высота : 400 пикселей
Соотношение сторон : 16:9
Частота кадров : 24,000 кадра/сек
Цветовое пространство : YUV
Субдискретизация насыщенности : 4:2:0
Битовая глубина : 8 бит
Тип развёртки : Прогрессивная
Метод сжатия : С потерями
Бит/(Пиксели*Кадры) : 0.203
Размер потока : 1,14 Гбайт (78%)
Библиотека кодирования : XviD 73
Аудио
Идентификатор : 1
Формат : AC-3
Формат/Информация : Audio Coding 3
Расширение режима : CM (complete main)
Параметр Endianness формата : Big
Идентификатор кодека : 2000
Продолжительность : 1 ч. 56 м.
Вид битрейта : Постоянный
Битрейт : 384 Кбит/сек
Каналы : 6 каналов
Расположение каналов : Front: L C R, Side: L R, LFE
Частота : 48,0 КГц
Битовая глубина : 16 бит
Метод сжатия : С потерями
Размер потока : 319 Мбайт (21%)
Выравнивание : Разделение по промежуткам
Продолжительность промежутка : 42 мс. (1,00 видеокадр)
Время предзагрузки промежутка : 500 мс.
[teatrix.ru].t22759.torrent 
Торрент: Зарегистрирован [ 2016-03-21 00:08 ] · 17A20C80859C4731C2AA80870FA56CF800F8B61C

Скачать .torrent

Скачать

17 KB

Статус: проверено
Скачан: 0 раз
Размер: 1.61 GB
terms.php



Быстрый ответ

Имя:

      
Для отправки сообщений необходимо включить JavaScript
Показать сообщения:    

Текущее время: 07-Дек 21:23

Часовой пояс: UTC + 3


Вы можете начинать темы
Вы можете отвечать на сообщения
Вы не можете редактировать свои сообщения
Вы не можете удалять свои сообщения
Вы не можете голосовать в опросах
Вы не можете прикреплять файлы к сообщениям
Вы можете скачивать файлы