Рокко и его братья / Rocco e i suoi fratelli (Лукино Висконти / Luchino Visconti) [1960, Италия, франция, драма, BDRip] [Полная версия] MVO (Film Prestige) + MVO (1 канал) + Sub Rus, Eng + Original Ita


 

[Цитировать]

Рокко и его братья / Rocco e i suoi fratelli / Полная версия
Страна: Италия, франция
Жанр: драма
Год выпуска: 1960
Продолжительность: 02:59:06
Перевод: Профессиональный (многоголосый закадровый) - Film Prestige
Перевод: Профессиональный (многоголосый закадровый) - 1 канал
Cубтитры: русские (полные), английские, русские (на непереведенные фрагменты 1канал и Film Prestige)
Оригинальная аудиодорожка: итальянский

Режиссер: Лукино Висконти / Luchino Visconti
В ролях: Ален Делон, Ренато Сальватори, Анни Жирардо, Катина Паксину, Спирос Фокас, Макс Картье, Коррадо Пани, Рокко Видолацци, Алессандра Панаро, Клаудия Мори, Адриана Асти, Энцо Фьермонте, Нино Кастельнуово, Розарио Борелли, Ренато Терра, Паоло Стоппа, Клаудия Кардинале, Сюзи Делер
Описание: Одна из лучших картин Лукино Висконти, открывшая для кино Алена Делона и Анни Жирардо.
Семейство Паронди (мать и пятеро сыновей) в поисках счастливой доли переезжает из полунищей Сицилии в промышленный Милан. Старший, Симоне, человек жестокий и агрессивный, делает карьеру на ринге. Ангельски красивый, тонкий и ранимый Рокко поначалу идет работать на фабрику, а затем тоже подается в боксеры. Материальное положение семьи нормализуется, но обычные человеческие пороки – вожделение и жадность, эгоизм и ревность – не дают обрести счастье. На беду для всех, и Симоне, и Рокко влюбляются в одну женщину…

Качество видео: BDRip
Формат видео: AVI
Видео: 720x384 (1.88:1), 24 fps, XviD build 73 ~1545 kbps avg, 0.23 bit/pixel
Аудио: 48 kHz, AC3 Dolby Digital, 2/0 (L,R) ch, ~192 kbps - Film Prestige
отдельными файлами:
Аудио: 48 kHz, AC3 Dolby Digital, 2/0 (L,R) ch, ~256 kbps - 1 канал
Аудио: 48 kHz, AC3 Dolby Digital, 2/0 (L,R) ch, ~192 kbps - оригинал

MediaInfo

Общее
Полное имя : H:\Rocco.e.i.suoi.fratelli.1960.bdrip_[2.18]_[teko]\Rocco.e.i.suoi.fratelli.1960.bdrip_[2.18].avi
Формат : AVI
Формат/Информация : Audio Video Interleave
Профиль формата : OpenDML
Размер файла : 2,18 Гбайт
Продолжительность : 2 ч. 59 м.
Общий поток : 1744 Кбит/сек
Программа кодирования : VirtualDubMod 1.5.10.3 | www.virtualdub-fr.org || (build 2550/release)
Библиотека кодирования : VirtualDubMod build 2550/release
Видео
Идентификатор : 0
Формат : MPEG-4 Visual
Профиль формата : Advanced Simple@L5
Параметр BVOP формата : 1
Параметр QPel формата : Нет
Параметр GMC формата : Без точки перехода
Параметр матрицы формата : Выборочная
Идентификатор кодека : XVID
Идентификатор кодека/Подсказка : XviD
Продолжительность : 2 ч. 59 м.
Битрейт : 1541 Кбит/сек
Ширина : 720 пикселей
Высота : 384 пикселя
Соотношение сторон : 1,85:1
Частота кадров : 24,000 кадра/сек
Цветовое пространство : YUV
Субдискретизация насыщенности : 4:2:0
Битовая глубина : 8 бит
Тип развёртки : Прогрессивная
Метод сжатия : С потерями
Бит/(Пиксели*Кадры) : 0.232
Размер потока : 1,93 Гбайт (88%)
Библиотека кодирования : XviD 73
Аудио
Идентификатор : 1
Формат : AC-3
Формат/Информация : Audio Coding 3
Расширение режима : CM (complete main)
Параметр Endianness формата : Big
Идентификатор кодека : 2000
Продолжительность : 2 ч. 59 м.
Вид битрейта : Постоянный
Битрейт : 192 Кбит/сек
Каналы : 2 канала
Расположение каналов : Front: L R
Частота : 48,0 КГц
Битовая глубина : 16 бит
Метод сжатия : С потерями
Размер потока : 246 Мбайт (11%)
Выравнивание : Разделение по промежуткам
Продолжительность промежутка : 42 мс. (1,00 видеокадр)
Время предзагрузки промежутка : 500 мс.



Показать сообщения:    

Текущее время: 09-Дек 22:23

Часовой пояс: UTC + 3


Вы не можете начинать темы
Вы не можете отвечать на сообщения
Вы не можете редактировать свои сообщения
Вы не можете удалять свои сообщения
Вы не можете голосовать в опросах
Вы не можете прикреплять файлы к сообщениям
Вы не можете скачивать файлы