Айрис / Айрис Апфель / Iris / Iris Apfel (Альберт Майзелс / Albert Maysles) [2014, документальный, биографический, DVB] DVO (24 ДОК)


Статистика раздачи [Обновить пиров]
Размер:  1.52 GB   |    Зарегистрирован:  8 месяцев 17 дней   |    Скачан:  0 раз

Полного источника не было: Никогда

 
   
 
 
 

[Цитировать]

Айрис
Iris- Дата/Год выпуска: 2014
Страна: США
Жанр: документальный, биографический
Продолжительность: 01:16:25
Перевод: Профессиональный (двухголосый закадровый)
Доп. инфо о переводе: 24 ДОК
Русские субтитры: есть
Формат субтитров: hardsub (неотключаемые)
Доп. информация о субтитрах: форсированные, замена видеоряда
Режиссер: Альберт Майзелс / Albert Maysles
Телеканал: 24 ДОКОписание: В этом году Айрис Апфель отметила свое 94-летие, 100-летний юбилей своего мужа Карла и 67-ю годовщину их свадьбы. Еврейка по происхождению, Айрис Апфель родилась в заселенном эмигрантами нью-йоркском районе Куинс в семье владельца компании по производству окон и зеркал. Ее мать была родом из России. Девушка окончила факультет истории искусств Нью-Йоркского университета и пошла работать в знаменитую газету о моде Women’s Wear Daily, после — к знаменитому фэшн-иллюстратору Роберту Гудману. Многие, конечно, думают, что легендарная икона стиля всю себя посвятила моде. Но на самом деле нет: в 1950-х годах Апфель вместе с мужем основала текстильную фирму Old World Weavers, которая создавала реплики тканей XVII, XVIII, XIX и начала XX века. Клиентами Апфель были Грета Гарбо, Жаклин Кеннеди-Онассис и Эсте Лаудер. Собственно, именно в этом направлении Апфель и нашла себя — текстиль и дизайн интерьеров. Всю жизнь худшим сценарием для Айрис Апфель было выглядеть, как все: "Это ужасно, что сегодня все выглядят одинаково. Навязчивая современная культура отнимает у них воображение, и это так грустно". (Ирина Дубина "Айрис Апфель – исчезающий вид", Interview Russia)
Доп. информация: DVB-S
Награды: приз зрительских симпатий за лучший документальный фильм Hamptons International Film Festival 2014; номинация на лучший документальный фильм Indiewire Critics' Poll 2015.

качество: DVB
формат: MKV
Видео: MPEG Video 2, 720x576@768x576 (4:3), 25 fps, ~2590 kbps avg, 0.250 bit/pixel
Аудио: MPEG Audio 2, 2 ch, 48 kHz, 192 kbps

MediaInfo

Общее
Уникальный идентификатор : 209729724153041645643437250264746164397 (0x9DC879C0C1028305A06492105E7000AD)
Полное имя : F:\My Torrents 3\[apreder]Iris(2014)DVB.mkv
Формат : Matroska
Версия формата : Version 2
Размер файла : 1,52 Гбайт
Продолжительность : 1 ч. 16 м.
Режим общего битрейта : Переменный
Общий поток : 2838 Кбит/сек
Название фильма : Iris
Дата выпуска : 2015-04-29
Дата кодирования : UTC 2016-01-01 14:20:48
Программа кодирования : mkvmerge v8.7.0 ('All of the above') 64bit
Библиотека кодирования : libebml v1.3.3 + libmatroska v1.4.4
Обложка : Yes
Attachments : cover.jpg / cover_small.jpg
ACTOR : Iris Apfel
DIRECTOR : Albert Maysles
GENRE : Documentary, Biography, History
IMDB : tt4157220
KEYWORDS : rutracker.org
LAW_RATING : 12+
Видео
Идентификатор : 1
Формат : MPEG Video
Версия формата : Version 2
Профиль формата : Main@Main
Параметр BVOP формата : Да
Параметр матрицы формата : Выборочная
Параметр GOP формата : Variable
Format_Settings_PictureStructure : Frame
Идентификатор кодека : V_MPEG2
Идентификатор кодека/Информация : MPEG 1 or 2 Video
Продолжительность : 1 ч. 16 м.
Вид битрейта : Переменный
Битрейт : 2590 Кбит/сек
Ширина : 720 пикселей
Высота : 576 пикселей
Соотношение сторон : 4:3
Режим частоты кадров : Постоянный
Частота кадров : 25,000 кадров/сек
Стандарт вещания : PAL
Цветовое пространство : YUV
Субдискретизация насыщенности : 4:2:0
Битовая глубина : 8 бит
Тип развёртки : Чересстрочная
Порядок развёртки : Верхнее поле первое
Метод сжатия : С потерями
Бит/(Пиксели*Кадры) : 0.250
Временной код первого кадра : 00:00:00:00
Оригинал временного кода : Group of pictures header
Размер потока : 1,38 Гбайт (91%)
Default : Да
Forced : Нет
Аудио
Идентификатор : 2
Формат : MPEG Audio
Версия формата : Version 1
Профиль формата : Layer 2
Идентификатор кодека : A_MPEG/L2
Идентификатор кодека/Подсказка : MP2
Продолжительность : 1 ч. 16 м.
Вид битрейта : Постоянный
Битрейт : 192 Кбит/сек
Каналы : 2 канала
Частота : 48,0 КГц
Метод сжатия : С потерями
Размер потока : 105 Мбайт (7%)
Язык : Russian
Default : Да
Forced : Нет

Скриншоты


Резервные скриншоты


-
[teatrix.ru].t22763.torrent 
Торрент: Зарегистрирован [ 2016-03-21 00:13 ] · 56E508CD20DD7387807928D32291D219D78A36C2

Скачать .torrent

Скачать

16 KB

Статус: проверено
Скачан: 0 раз
Размер: 1.52 GB
terms.php



Быстрый ответ

Имя:

      
Для отправки сообщений необходимо включить JavaScript
Показать сообщения:    

Текущее время: 07-Дек 13:38

Часовой пояс: UTC + 3


Вы можете начинать темы
Вы можете отвечать на сообщения
Вы не можете редактировать свои сообщения
Вы не можете удалять свои сообщения
Вы не можете голосовать в опросах
Вы не можете прикреплять файлы к сообщениям
Вы можете скачивать файлы