Волчья стая / The Wolfpack (Кристал Мозелл / Crystal Moselle) [2015, США, документальный, DVB] DVO (24 ДОК)


Статистика раздачи [Обновить пиров]
Размер:  1.32 GB   |    Зарегистрирован:  8 месяцев 21 день   |    Скачан:  0 раз

Полного источника не было: Никогда

 
   
 
 
 

[Цитировать]

Волчья стая
The Wolfpack- Страна: США
Жанр: документальный
Год выпуска: 2015
Продолжительность: 01:23:08Перевод: Профессиональный (двухголосый закадровый) по заказу телеканала "24 ДОК"
Cубтитры: нет
Режиссер: Кристал Мозелл / Crystal Moselle
В ролях: Бхагаван Ангуло, Говинда Ангуло, Ягадиша Ангуло, Кришна Ангуло, Мукунда Ангуло, Нарьяна Ангуло
Описание: Шестеро братьев Ангуло провели взаперти почти всю свою жизнь. Реальность вокруг них ограничена стенами многокомнатной квартиры на Манхеттене, которую они не покидали годами. У них практически нет знакомых и даже свое образование они получали в домашних условиях. Все, что эти ребята знают о мире, они увидели в кино. Фильмы подменили для них реальность и они всеми возможными способами пытаются попасть в этот волшебный мир. Каждый день они разыгрывают любимые эпизоды из фильмов и заполнили реквизитом целую комнату. Из коробок от хлопьев они делают костюмы Бэтмэна, а для фильмов Тарантино у них припасена коллекция водяных пистолетов.
Доп. информация: Eutelsat 36B (W7) DVB-S
Награды: Гран-при жюри за лучший документальный фильм Sundance Film Festival 2015; приз за лучший полнометражный документальный фильм Edinburgh International Film Festival 2015; др. награды.

Качество видео: DVB
Формат видео: MKV
Видео: MPEG Video 2, 720x576@768x576 (4:3), 25 fps, ~2033 kbps avg, 0.196 bit/pixel
Аудио: MPEG Audio 2, 2 ch, 48 kHz, 192 kbps

MediaInfo

Общее
Уникальный идентификатор : 210158646255087533721421430429845138303 (0x9E1B153ECC065C9BA308FF877F39AB7F)
Полное имя : F:\My Torrents 3\[apreder]The_Wolfpack(2015)DVB.mkv
Формат : Matroska
Версия формата : Version 2
Размер файла : 1,32 Гбайт
Продолжительность : 1 ч. 23 м.
Режим общего битрейта : Переменный
Общий поток : 2270 Кбит/сек
Название фильма : The Wolfpack
Дата выпуска : 2015-07-10
Дата кодирования : UTC 2016-01-02 06:52:44
Программа кодирования : mkvmerge v8.7.0 ('All of the above') 64bit
Библиотека кодирования : libebml v1.3.3 + libmatroska v1.4.4
Обложка : Yes
Attachments : cover.jpg / cover_small.jpg
DIRECTOR : Crystal Moselle
GENRE : Documentary, Biography
IMDB : tt2415458
KEYWORDS : rutracker.org
LAW_RATING : 16+
Видео
Идентификатор : 1
Формат : MPEG Video
Версия формата : Version 2
Профиль формата : Main@Main
Параметр BVOP формата : Да
Параметр матрицы формата : Выборочная
Параметр GOP формата : M=3, N=36
Format_Settings_PictureStructure : Frame
Идентификатор кодека : V_MPEG2
Идентификатор кодека/Информация : MPEG 1 or 2 Video
Продолжительность : 1 ч. 23 м.
Вид битрейта : Переменный
Битрейт : 2033 Кбит/сек
Ширина : 720 пикселей
Высота : 576 пикселей
Соотношение сторон : 4:3
Режим частоты кадров : Постоянный
Частота кадров : 25,000 кадров/сек
Стандарт вещания : PAL
Цветовое пространство : YUV
Субдискретизация насыщенности : 4:2:0
Битовая глубина : 8 бит
Тип развёртки : Чересстрочная
Порядок развёртки : Верхнее поле первое
Метод сжатия : С потерями
Бит/(Пиксели*Кадры) : 0.196
Временной код первого кадра : 00:00:00:00
Оригинал временного кода : Group of pictures header
Размер потока : 1,18 Гбайт (90%)
Default : Да
Forced : Нет
Аудио
Идентификатор : 2
Формат : MPEG Audio
Версия формата : Version 1
Профиль формата : Layer 2
Идентификатор кодека : A_MPEG/L2
Идентификатор кодека/Подсказка : MP2
Продолжительность : 1 ч. 23 м.
Вид битрейта : Постоянный
Битрейт : 192 Кбит/сек
Каналы : 2 канала
Частота : 48,0 КГц
Метод сжатия : С потерями
Размер потока : 114 Мбайт (8%)
Язык : Russian
Default : Да
Forced : Нет

Скриншот c названием фильма

Скриншоты


Резервные скриншоты


-
[teatrix.ru].t22766.torrent 
Торрент: Зарегистрирован [ 2016-03-21 00:30 ] · 4F414FC4A5AA1DAC67D1A8034E6D393F7AA805B9

Скачать .torrent

Скачать

14 KB

Статус: проверено
Скачан: 0 раз
Размер: 1.32 GB
terms.php



Быстрый ответ

Имя:

      
Для отправки сообщений необходимо включить JavaScript
Показать сообщения:    

Текущее время: 11-Дек 07:16

Часовой пояс: UTC + 3


Вы можете начинать темы
Вы можете отвечать на сообщения
Вы не можете редактировать свои сообщения
Вы не можете удалять свои сообщения
Вы не можете голосовать в опросах
Вы не можете прикреплять файлы к сообщениям
Вы можете скачивать файлы