Иосиф Бродский. Поэт о поэтах (Студия литературно-художественных программ телекомпании Останкино) [1992, Россия, Швеция, литературные чтения, DVB]


Статистика раздачи [Обновить пиров]
Размер:  832 MB   |    Зарегистрирован:  8 месяцев 14 дней   |    Скачан:  0 раз

Полного источника не было: Никогда

 
   
 
 
 

[Цитировать]

Иосиф Бродский
Поэт о поэтах- Страна: Россия, Швеция
Жанр: литературные чтения
Год выпуска: 1992
Продолжительность: 00:39:53Режиссёр: Студия литературно-художественных программ телекомпании "Останкино"
В ролях: Иосиф Бродский, Елена Янгфельдт-Якубович
Описание: Фильм-рассуждение о многих проблемах, в первую очередь - духовных и нравственных, имеющихся в нашем обществе. Иосиф Бродский рассуждает о поэзии, поэтах и стране: об А. Ахматовой, М. Цветаевой, Б. Пастернаке, О. Мандельштаме. И. Бродский рассуждает о судьбе и поэтике каждого из этой "великой четверки" и вспоминает о своем знакомстве с А. Ахматовой. Звучат стихи и песни на стихи А.Ахматовой, Б.Пастернака, О.Мандельштама, М.Цветаевой.
Треклист:
01. Иосиф Бродский - Нас четверо (А.Ахматова)
02. Елена Янгфельдт-Якубович - Кабы нас с тобой да судьба свела… (М.Цветаева)
03. Иосиф Бродский – Магдалина, 3-е стихотворение (М.Цветаева)
04. Иосиф Бродский – Магдалина (Б.Пастернак)
05. Елена Янгфельдт-Якубович - Зимняя ночь (Б.Пастернак)
06. Елена Янгфельдт-Якубович - Ленинград (О.Мандельштам)
07. Иосиф Бродский – Стансы, отрывок (О.Мандельштам)
08. Елена Янгфельдт-Якубович - Чугунная ограда (А.Ахматова)
09. Анна Ахматова – Последняя роза (аудиозапись)
10. Анна Ахматова – Нас четверо (аудиозапись)
11. Елена Янгфельдт-Якубович - Приморский сонет (А.Ахматова)
Доп. информация: "Ностальгия" Eutelsat 36B (W7) DVB-S

Качество видео: DVB
Формат видео: MKV
Видео: MPEG Video 2, 720x576 (4:3), 25 fps, ~2665 kbps avg, 0.257 bit/pixel
Аудио: MPEG Audio 2, 2 ch, 48 kHz, 192 kbps

Информация по редактированию

Topfield SRP-2410 – запись спутниковой трансляции DVB-S (.rec)
ProjectX 0.91.0.10 - разбор контейнера, удаление рекламы и доп. информации
MKVToolNix GUI 8.7.0 – сборка в контейнер MKV
MkvTagger – редактирование тегов

MediaInfo

Общее
Уникальный идентификатор : 222964913304427208966104616760554083696 (0xA7BD7AF5783CCF00B77DA1B782B8D570)
Полное имя : F:\My Torrents 3\[apreder]Joseph_Brodsky_Poet_o_poetah(1992)DVB.mkv
Формат : Matroska
Версия формата : Version 2
Размер файла : 832 Мбайт
Продолжительность : 39 м.
Режим общего битрейта : Переменный
Общий поток : 2915 Кбит/сек
Название фильма : Joseph Brodsky
Дата выпуска : 1992-00-00
Дата кодирования : UTC 2016-01-02 08:38:26
Программа кодирования : mkvmerge v8.7.0 ('All of the above') 64bit
Библиотека кодирования : libebml v1.3.3 + libmatroska v1.4.4
Обложка : Yes
Attachments : cover.jpg / cover_small.jpg
GENRE : Documentary
KEYWORDS : rutracker.org
LAW_RATING : 16+
Видео
Идентификатор : 1
Формат : MPEG Video
Версия формата : Version 2
Профиль формата : Main@Main
Параметр BVOP формата : Да
Параметр матрицы формата : Выборочная
Параметр GOP формата : Variable
Format_Settings_PictureStructure : Frame
Идентификатор кодека : V_MPEG2
Идентификатор кодека/Информация : MPEG 1 or 2 Video
Продолжительность : 39 м.
Вид битрейта : Переменный
Битрейт : 2665 Кбит/сек
Ширина : 720 пикселей
Высота : 576 пикселей
Соотношение сторон : 4:3
Режим частоты кадров : Постоянный
Частота кадров : 25,000 кадров/сек
Стандарт вещания : PAL
Цветовое пространство : YUV
Субдискретизация насыщенности : 4:2:0
Битовая глубина : 8 бит
Тип развёртки : Чересстрочная
Порядок развёртки : Верхнее поле первое
Метод сжатия : С потерями
Бит/(Пиксели*Кадры) : 0.257
Временной код первого кадра : 00:00:00:00
Оригинал временного кода : Group of pictures header
Размер потока : 760 Мбайт (91%)
Default : Да
Forced : Нет
Аудио
Идентификатор : 2
Формат : MPEG Audio
Версия формата : Version 1
Профиль формата : Layer 2
Идентификатор кодека : A_MPEG/L2
Идентификатор кодека/Подсказка : MP2
Продолжительность : 39 м.
Вид битрейта : Постоянный
Битрейт : 192 Кбит/сек
Каналы : 2 канала
Частота : 48,0 КГц
Метод сжатия : С потерями
Размер потока : 54,8 Мбайт (7%)
Язык : Russian
Default : Да
Forced : Нет

Скриншот с названием постановки

Скриншоты

Резервные скриншоты

-
[teatrix.ru].t22769.torrent 
Торрент: Зарегистрирован [ 2016-03-21 00:46 ] · 5E751A5FB779296FE905F6E11C6D0E841F94B0BB

Скачать .torrent

Скачать

17 KB

Статус: проверено
Скачан: 0 раз
Размер: 832 MB
terms.php



Быстрый ответ

Имя:

      
Для отправки сообщений необходимо включить JavaScript
Показать сообщения:    

Текущее время: 04-Дек 00:48

Часовой пояс: UTC + 3


Вы можете начинать темы
Вы можете отвечать на сообщения
Вы не можете редактировать свои сообщения
Вы не можете удалять свои сообщения
Вы не можете голосовать в опросах
Вы не можете прикреплять файлы к сообщениям
Вы можете скачивать файлы