Георгий Свиридов - "Россия - лирическая величина..." [2015 г., Classic music, WEB-DLRip] Московская государственная академическая филармония


Статистика раздачи [Обновить пиров]
Размер:  1.34 GB   |    Зарегистрирован:  8 месяцев 13 дней   |    Скачан:  0 раз

Полного источника не было: Никогда

 
   
 
 
 

[Цитировать]

Георгий Свиридов. "Россия - лирическая величина..." К 100-летию со дня рождения Георгия Васильевича Свиридова
(3[16].12.1915, Фатеж, Курская губерния - 6.01.1998, Москва).

Год выпуска: 2015.
Жанр: Classic music.
Продолжительность: 01:33:04.
Ведёт концерт: Ольга Кардюкова.
Государственный Академический Большой симфонический оркестр имени П. И. Чайковского.
Дирижёр:
Владимир Федосеев.
Государственная академическая Певческая капелла имени М. И. Глинки (Санкт-Петербург).
Художественный руководитель:
Владислав Чернушенко.
Солист: Олег Трофимов (тенор).
Описание:
"У Свиридова музыка - это всегда некая икона,
к которой человек должен стремиться.
Такую музыку нельзя играть каждый день.
И нельзя слушать каждый день...
Эта музыка должна звучать как откровение"
/Владимир Минин/

Лишь по прошествии веков определяется, что было истинным и вечным, а что модным и сиюминутным. Однако уже сейчас можно сказать, что музыка Свиридова проверена временем. Композитор был чужд новомодных течений и экспериментов, он писал музыку искреннюю и правдивую, доступную простому слушателю и интересную знатоку-профессионалу. Писал не для славы, а "во славу" - во славу России, русского человека, русской культуры.
Единомышленниками Свиридова были многие выдающиеся музыканты, литераторы, артисты, - все те, кому небезразличны судьба нашей страны. Большой симфонический оркестр имени П. И. Чайковского, его художественный руководитель и главный дирижер Владимир Федосеев осуществили премьеры всех оркестровых произведений Георгия Свиридова, и их сотрудничество стало примером подлинного сотворчества.
"Бог дал мне возможность встретиться с Георгием Васильевичем Свиридовым, видеться с ним, слушать его, - рассказывает дирижер. - Это уникальная школа, так как он был человеком необыкновенных знаний, предвидений. Он видел всё вперед, и стал для меня учителем жизни. Конечно же, он прежде всего композитор, но не только. Он был Личностью. Нашему оркестру удалось сыграть почти всю его музыку. И она действует на любую публику потрясающе".
В январе 1998 года, когда пришла печальная весть о кончине Георгия Свиридова, Владимир Федосеев, не задумываясь, изменил программу очередного концерта в Большом зале консерватории и полностью посвятил его памяти композитора. А через год передал в дар Большому залу Московской консерватории бюст Георгия Васильевича работы Михаила Аникушина - автора знаменитого памятника Пушкину в Петербурге.

Дополнительная информация:
Страна: Россия .

Программа концерта

Первое отделение
• "Маленький триптих для оркестра" (1964 г.)
• Сюита "Время, вперёд!" (1965 г.) из музыки к одноименным кинофильму Михаила Швейцера и роману Валентина Катаева.
• "Уральский напев". "Частушка". "Марш". "Маленький фокстрот". "Ночь". "Время, вперёд!"
Второе отделение
• "Поэма памяти Сергея Есенина" для тенора, смешанного хора и оркестра (1956 г.) на слова Сергея Есенина
• "Край ты мой заброшенный". "Поёт зима". "В том краю". "Молотьба". "Ночь под Ивана Купала".
• "1919". "Крестьянские ребята". "Я последний поэт деревни". "Небо - как колокол".
На "бис"
• "Отзвуки вальса" из музыкальных иллюстраций к повести Пушкина "Метель"
• "Время, вперёд!".
Концерт состоялся 16 декабря 2015 года в Концертном Зале им. П. И. Чайковского.
Релиз
Рип lesik689.

Качество видео:...WEB-DLRip
Формат:.................AVI
Видео:..720x400 (1.80:1), 25 fps, XviD MPEG-4 ~1802 kbps avg, 0.25 bit/pixel
Аудио:..48 kHz, AC3 Dolby Digital, 2/0 (L,R) ch, ~256 kbps

Отчет Media Info

General
Complete name : Georgij.Sviridov.Rossiya.liricheskaya.velichina_KZCh.2015.XviD.WEB-DLRip.fenixclub.avi
Format : AVI
Format/Info : Audio Video Interleave
File size : 1.34 GiB
Duration : 1h 33mn
Overall bit rate : 2 068 Kbps
Writing application : VirtualDubMod 1.5.10.2 (build 2542/release)
Writing library : VirtualDubMod build 2542/release
Video
ID : 0
Format : MPEG-4 Visual
Format profile : Advanced Simple@L5
Format settings, BVOP : 2
Format settings, QPel : No
Format settings, GMC : No warppoints
Format settings, Matrix : Default (MPEG)
Codec ID : XVID
Codec ID/Hint : XviD
Duration : 1h 33mn
Bit rate : 1 802 Kbps
Width : 720 pixels
Height : 400 pixels
Display aspect ratio : 16:9
Original display aspect rat : 16:9
Frame rate : 25.000 fps
Color space : YUV
Chroma subsampling : 4:2:0
Bit depth : 8 bits
Scan type : Progressive
Compression mode : Lossy
Bits/(Pixel*Frame) : 0.250
Stream size : 1.17 GiB (87%)
Writing library : XviD 73
Audio
ID : 1
Format : AC-3
Format/Info : Audio Coding 3
Mode extension : CM (complete main)
Format settings, Endianness : Big
Codec ID : 2000
Duration : 1h 33mn
Bit rate mode : Constant
Bit rate : 256 Kbps
Channel(s) : 2 channels
Channel positions : Front: L R
Sampling rate : 48.0 KHz
Compression mode : Lossy
Stream size : 170 MiB (12%)
Alignment : Aligned on interleaves
Interleave, duration : 40 ms (1.00 video frame)
Interleave, preload duratio : 512 ms

Скриншоты

Альтернативный хост

[teatrix.ru].t22770.torrent 
Торрент: Зарегистрирован [ 2016-03-21 00:30 ] · 8E92DA5FED7E3A418B3658AE54F990D018EFF7FB

Скачать .torrent

Скачать

14 KB

Статус: проверено
Скачан: 0 раз
Размер: 1.34 GB
terms.php



Быстрый ответ

Имя:

      
Для отправки сообщений необходимо включить JavaScript
Показать сообщения:    

Текущее время: 03-Дек 09:44

Часовой пояс: UTC + 3


Вы можете начинать темы
Вы можете отвечать на сообщения
Вы не можете редактировать свои сообщения
Вы не можете удалять свои сообщения
Вы не можете голосовать в опросах
Вы не можете прикреплять файлы к сообщениям
Вы можете скачивать файлы