Ночной кошмар / The Nightmare (Родни Ашер / Rodney Ascher) [2015, США, документально-игровой, экспериментальный, триллер, DVB] DVO (24 ДОК)


Статистика раздачи [Обновить пиров]
Размер:  781 MB   |    Зарегистрирован:  8 месяцев 14 дней   |    Скачан:  1 раз

Полного источника не было: 7 месяцев 23 дня

 
   
 
 
 

[Цитировать]

Ночной кошмар
The Nightmare- Страна: США
Жанр: документально-игровой, экспериментальный, триллер
Год выпуска: 2015
Продолжительность: 01:23:59Перевод: Профессиональный (двухголосый закадровый) 24 ДОК
Cубтитры: русские
Режиссер: Родни Ашер / Rodney Ascher
В ролях: Зигфрид Петерс / Siegfried Peters (Chris), Ятоя Той / Yatoya Toy (Connies Roommate), Элиза Робсон / Elise Robson (Chris's Girlfriend), Стивен Майкл Джозеф / Stephen Michael Joseph (Shadow Man)
Описание: Режиссёр Родни Ашер специализируется на документальных фильмах о страшных и необъяснимых вещах. В этом документальном триллере, показанном на фестивале "Сандэнс" и номинированном на приз Московского кинофестиваля, рассказаны истории нескольких людей, страдающих от сонного паралича – состояния, в котором разум бодрствует, а тело полностью обездвижено во время сна. На сей раз, он продолжает своё исследование скрытых смыслов кинематографа, выбрав не менее увлекательную тему – сонный паралич, которую он раскрывает на примере фильма "Кошмар на улице Вязов". (анонс канала "24 ДОК")
Доп. информация: Eutelsat 36B (W7) DVB-S
Номинация на приз "Серебряный Св. Георгий" за лучший документальный фильм Московского международного кинофестиваля 2015. Участник Sundance Film Festival 2015.

Качество видео: DVB
Формат видео: MKV
Видео: MPEG Video 2, 720x576@768x576 (4:3), 25 fps, ~1082 kbps avg, 0.104 bit/pixel
Аудио: MPEG Audio 2, 2 ch, 48 kHz, 192 kbps
Формат субтитров: hardsub (неотключаемые)
Доп. информация о субтитрах: форсированные, замена видеоряда

MediaInfo

Общее
Уникальный идентификатор : 254167112986107412317564027657074141549 (0xBF36CE2D3DFAECA1AE7998DCDABA696D)
Полное имя : F:\My Torrents 3\[apreder]The_Nightmare(2015)DVB.mkv
Формат : Matroska
Версия формата : Version 2
Размер файла : 781 Мбайт
Продолжительность : 1 ч. 23 м.
Режим общего битрейта : Переменный
Общий поток : 1300 Кбит/сек
Название фильма : The Nightmare
Дата выпуска : 2015-06-05
Дата кодирования : UTC 2016-01-02 07:44:56
Программа кодирования : mkvmerge v8.7.0 ('All of the above') 64bit
Библиотека кодирования : libebml v1.3.3 + libmatroska v1.4.4
Обложка : Yes
Attachments : cover.jpg / cover_small.jpg
DIRECTOR : Rodney Ascher
GENRE : Documentary
IMDB : tt3317522
KEYWORDS : rutracker.org
LAW_RATING : 16+
Видео
Идентификатор : 1
Формат : MPEG Video
Версия формата : Version 2
Профиль формата : Main@Main
Параметр BVOP формата : Да
Параметр матрицы формата : Выборочная
Параметр GOP формата : M=3, N=36
Format_Settings_PictureStructure : Frame
Идентификатор кодека : V_MPEG2
Идентификатор кодека/Информация : MPEG 1 or 2 Video
Продолжительность : 1 ч. 23 м.
Вид битрейта : Переменный
Битрейт : 1082 Кбит/сек
Ширина : 720 пикселей
Высота : 576 пикселей
Соотношение сторон : 4:3
Режим частоты кадров : Постоянный
Частота кадров : 25,000 кадров/сек
Стандарт вещания : PAL
Цветовое пространство : YUV
Субдискретизация насыщенности : 4:2:0
Битовая глубина : 8 бит
Тип развёртки : Чересстрочная
Порядок развёртки : Верхнее поле первое
Метод сжатия : С потерями
Бит/(Пиксели*Кадры) : 0.104
Временной код первого кадра : 00:00:00:00
Оригинал временного кода : Group of pictures header
Размер потока : 650 Мбайт (83%)
Default : Да
Forced : Нет
Аудио
Идентификатор : 2
Формат : MPEG Audio
Версия формата : Version 1
Профиль формата : Layer 2
Идентификатор кодека : A_MPEG/L2
Идентификатор кодека/Подсказка : MP2
Продолжительность : 1 ч. 23 м.
Вид битрейта : Постоянный
Битрейт : 192 Кбит/сек
Каналы : 2 канала
Частота : 48,0 КГц
Метод сжатия : С потерями
Размер потока : 115 Мбайт (15%)
Язык : Russian
Default : Да
Forced : Нет

Скриншот c названием фильма

Скриншоты


Резервные скриншоты


[teatrix.ru].t22771.torrent 
Торрент: Зарегистрирован [ 2016-03-21 00:21 ] · 4B045CFBF402AE7C009D0FBBEFA938E0F3A92E45

Скачать .torrent

Скачать

16 KB

Статус: проверено
Скачан: 1 раз
Размер: 781 MB
terms.php



Быстрый ответ

Имя:

      
Для отправки сообщений необходимо включить JavaScript
Показать сообщения:    

Текущее время: 04-Дек 02:51

Часовой пояс: UTC + 3


Вы можете начинать темы
Вы можете отвечать на сообщения
Вы не можете редактировать свои сообщения
Вы не можете удалять свои сообщения
Вы не можете голосовать в опросах
Вы не можете прикреплять файлы к сообщениям
Вы можете скачивать файлы