(Classical, 20th century) Bruno Maderna - Complete Works for Orchestra, Vol.3 - Carole Sidney Louis, Thaddeus Watson, Michael Sieg, Frankfurt Radio Symphony Orchestra, Arturo Tamayo - 2010, FLAC (image+.cue) lossless


 

[Цитировать]

Bruno Maderna - Complete Works for Orchestra, Vol.3 - Carole Sidney Louis, Thaddeus Watson, Michael Sieg, Frankfurt Radio Symphony Orchestra, Arturo Tamayo
Жанр: Classical, 20th century
Страна-производитель диска: Germany
Год издания диска: 2010
Издатель (лейбл): NEOS Music
Номер по каталогу: NEOS 10935
Дата записи: 2007
Аудиокодек: FLAC
Тип рипа: image+.cue
Битрейт аудио: lossless
Продолжительность: 72:32
Источник: собственный рип
Наличие сканов в содержимом раздачи: да
Треклист:
Bruno Maderna (1920-1973)
[1] Ausstrahlung (1971)
for female voice, flute, oboe, large orchestra and tape
Carole Sidney Louis soprano
Thaddeus Watson flute
Michael Sieg oboe
[2] Biogramma (1972)
for large orchestra
[3] Grande Aulodia (1970)
for flute, oboe and orchestra
Thaddeus Watson flute
Michael Sieg oboe
Исполнители:
Carole Sidney Louis soprano
Thaddeus Watson flute
Michael Sieg oboe
Frankfurt Radio Symphony Orchestra
Arturo Tamayo

Лог создания рипа

Exact Audio Copy V1.1 from 23. June 2015
EAC extraction logfile from 26. November 2015, 22:18
Frankfurt RSO, Arturo Tamayo / Maderna - Complete Works for Orchestra, Vol.3
Used drive : HL-DT-STDVDRAM GU70N Adapter: 1 ID: 0
Read mode : Secure
Utilize accurate stream : Yes
Defeat audio cache : Yes
Make use of C2 pointers : No
Read offset correction : 48
Overread into Lead-In and Lead-Out : No
Fill up missing offset samples with silence : Yes
Delete leading and trailing silent blocks : No
Null samples used in CRC calculations : Yes
Used interface : Native Win32 interface for Win NT & 2000
Used output format : User Defined Encoder
Selected bitrate : 128 kBit/s
Quality : High
Add ID3 tag : No
Command line compressor : C:\Program Files (x86)\Exact Audio Copy\Flac\flac.exe
Additional command line options : -V -8 -T "Date=%year%" -T "Genre=%genre%" %source%
TOC of the extracted CD
Track | Start | Length | Start sector | End sector
---------------------------------------------------------
1 | 0:00.00 | 33:44.27 | 0 | 151826
2 | 33:44.27 | 12:05.66 | 151827 | 206267
3 | 45:50.18 | 26:39.60 | 206268 | 326252
Range status and errors
Selected range
Filename C:\temp\Maderna - Complete Works for Orchestra, Vol.3\Maderna - Complete Works for Orchestra, Vol.3.wav
Peak level 98.8 %
Extraction speed 2.3 X
Range quality 100.0 %
Test CRC FE895FAA
Copy CRC FE895FAA
Copy OK
No errors occurred
AccurateRip summary
Track 1 accurately ripped (confidence 2) [ABB211F2] (AR v2)
Track 2 accurately ripped (confidence 2) [D6039DA8] (AR v2)
Track 3 accurately ripped (confidence 2) [DDEA6B6B] (AR v2)
All tracks accurately ripped
End of status report
==== Log checksum 3295046853DD547AA8DD728A13B479C8DBCFFF7A6AAE848DEB0F7674A7922C3C ====



Показать сообщения:    

Текущее время: 05-Дек 05:27

Часовой пояс: UTC + 3


Вы не можете начинать темы
Вы не можете отвечать на сообщения
Вы не можете редактировать свои сообщения
Вы не можете удалять свои сообщения
Вы не можете голосовать в опросах
Вы не можете прикреплять файлы к сообщениям
Вы не можете скачивать файлы