Шепоты и крики / Viskningar och rop / Cries and Whispers (Ингмар Бергман / Ingmar Bergman) [1972, Швеция, драма, HDRip] MVO (Кармен Видео) + Sub Rus, Eng + Original Swe


 

[Цитировать]

Шепоты и крики / Viskningar och rop / Cries and Whispers
Страна: Швеция
Жанр: драма
Год выпуска: 1972
Продолжительность: 01:31:43
Перевод: Профессиональный (многоголосый закадровый) - Кармен Видео
Cубтитры: русские, английские
Оригинальная аудиодорожка: шведский

Режиссер: Ингмар Бергман / Ingmar Bergman
В ролях: Харриет Андерссон, Ингрид Тулин, Лив Ульман, Кари Сюльван, Андерс Эк, Инга Гилль, Эрланд Юзефсон, Хеннинг Моритцен, Георг Орлин, Ингмар Бергман
Описание: Великолепно снятая история жизни умирающей женщины, ее сестер и служанки. Прикованная к постели и медленно умирающая Агнес уже не в силах примирить присматривающих за ней сестер, Карин и Марию. Да и сестры уже не слишком заботятся о ней, переложив все заботы о больной на плечи преданной служанки Анны... Лишь она может принести Агнес некоторое утешение.
Наверное, одна из самых сильных и страшных картин Бергмана, в которой он проводит весьма недвусмысленные параллели между человеческими отношениями своих персонажей и героями Евангелия.

Качество видео: HDRip
Формат видео: AVI
Видео: 720x432 (1.67:1), 23.976 fps, XviD build 73 ~2069 kbps avg, 0.28 bit/pixel
Аудио: 48 kHz, AC3 Dolby Digital, 2/0 (L,R) ch, ~192 kbps - многоголосый
Аудио: 48 kHz, AC3 Dolby Digital, 1 ch, ~192 kbps - оригинал (отдельным файлом)

MediaInfo

Общее
Полное имя : H:\Viskningar.och.rop.1972.hdrip_[1.46]_[teko]\Viskningar.och.rop.1972.hdrip_[1.46].avi
Формат : AVI
Формат/Информация : Audio Video Interleave
Размер файла : 1,46 Гбайт
Продолжительность : 1 ч. 31 м.
Общий поток : 2271 Кбит/сек
Программа кодирования : VirtualDubMod 1.5.10.3 | www.virtualdub-fr.org || (build 2550/release)
Библиотека кодирования : VirtualDubMod build 2550/release
Видео
Идентификатор : 0
Формат : MPEG-4 Visual
Профиль формата : Advanced Simple@L5
Параметр BVOP формата : 1
Параметр QPel формата : Нет
Параметр GMC формата : Без точки перехода
Параметр матрицы формата : Выборочная
Идентификатор кодека : XVID
Идентификатор кодека/Подсказка : XviD
Продолжительность : 1 ч. 31 м.
Битрейт : 2070 Кбит/сек
Ширина : 720 пикселей
Высота : 432 пикселя
Соотношение сторон : 1,667
Частота кадров : 23,976 кадра/сек
Цветовое пространство : YUV
Субдискретизация насыщенности : 4:2:0
Битовая глубина : 8 бит
Тип развёртки : Прогрессивная
Метод сжатия : С потерями
Бит/(Пиксели*Кадры) : 0.278
Размер потока : 1,33 Гбайт (91%)
Библиотека кодирования : XviD 73
Аудио
Идентификатор : 1
Формат : AC-3
Формат/Информация : Audio Coding 3
Расширение режима : CM (complete main)
Параметр Endianness формата : Big
Идентификатор кодека : 2000
Продолжительность : 1 ч. 31 м.
Вид битрейта : Постоянный
Битрейт : 192 Кбит/сек
Каналы : 2 канала
Расположение каналов : Front: L R
Частота : 48,0 КГц
Битовая глубина : 16 бит
Метод сжатия : С потерями
Размер потока : 126 Мбайт (8%)
Выравнивание : Разделение по промежуткам
Продолжительность промежутка : 42 мс. (1,00 видеокадр)
Время предзагрузки промежутка : 500 мс.



Показать сообщения:    

Текущее время: 03-Дек 20:39

Часовой пояс: UTC + 3


Вы не можете начинать темы
Вы не можете отвечать на сообщения
Вы не можете редактировать свои сообщения
Вы не можете удалять свои сообщения
Вы не можете голосовать в опросах
Вы не можете прикреплять файлы к сообщениям
Вы не можете скачивать файлы