Мила Йовович. Русская душой (Георгий Ананов) [2014, документальный, биографический, DVB]


Статистика раздачи [Обновить пиров]
Размер:  1.04 GB   |    Зарегистрирован:  8 месяцев 20 дней   |    Скачан:  0 раз

Полного источника не было: Никогда

 
   
 
 
 

[Цитировать]

Мила Йовович
Русская душой- Дата/Год выпуска: 2014
Страна: Россия
Жанр: документальный, биографический
Продолжительность: 00:50:10
Перевод: Не требуется
Русские субтитры: нет
Режиссер: Георгий Ананов
Телеканал: Время: далекое и близкоеОписание: Мила Йовович известна во всем мире. Известно, что эта американская актриса родилась в СССР, что не мешает ей уже долгое время считать одной из первых актрис Голливуда. Первый раз она пустили отечественную съемочную бригаду в свой дом. Она показала все, гостиную, свой кабинет, студию и спальню, полная откровенность. Актриса обожает свой милый и просторный дом. Но посещать его ей удается очень редко, ведь почти весь год Мила снимается в различных ах. А иначе никак, надо соответствовать своему рангу. Но перед приездом русской съемочной бригады в сборе оказалась вся большая семья Милы Йовович. (анонс канала "Время")
Доп. информация: Eutelsat 36B (W7) DVB-S

качество: DVB
формат: MKV
Видео: MPEG Video 2, 720x576 (4:3), 25 fps, ~2704 kbps avg, 0.261 bit/pixel
Аудио: MPEG Audio 2, 2 ch, 48 kHz, 192 kbps

Информация по редактированию

Topfield SRP-2410 – запись спутниковой трансляции DVB-S (.rec)
ProjectX 0.91.0.10 - разбор контейнера, удаление рекламы и доп. информации
MKVToolNix GUI 8.7.0 – сборка в контейнер MKV
MkvTagger – редактирование тэгов

MediaInfo

Общее
Уникальный идентификатор : 187238640447247216672455307726763202938 (0x8CDCD9B6543E0E6E98460BBDC1B6197A)
Полное имя : F:\My Torrents 3\[apreder]Milla_Jovovich_Russkaya_dushoi(2014)DVB.mkv
Формат : Matroska
Версия формата : Version 2
Размер файла : 1,04 Гбайт
Продолжительность : 50 м.
Режим общего битрейта : Переменный
Общий поток : 2955 Кбит/сек
Название фильма : Мила Йовович. Русская душой
Дата выпуска : 2014-00-00
Дата кодирования : UTC 2016-01-02 09:55:38
Программа кодирования : mkvmerge v8.7.0 ('All of the above') 64bit
Библиотека кодирования : libebml v1.3.3 + libmatroska v1.4.4
Обложка : Yes
Attachments : cover.png / cover_small.png
DIRECTOR : Георгий Ананов
GENRE : Documentary
KEYWORDS : rutracker.org
LAW_RATING : 12+
Видео
Идентификатор : 1
Формат : MPEG Video
Версия формата : Version 2
Профиль формата : Main@Main
Параметр BVOP формата : Да
Параметр матрицы формата : Выборочная
Параметр GOP формата : Variable
Format_Settings_PictureStructure : Frame
Идентификатор кодека : V_MPEG2
Идентификатор кодека/Информация : MPEG 1 or 2 Video
Продолжительность : 50 м.
Вид битрейта : Переменный
Битрейт : 2704 Кбит/сек
Ширина : 720 пикселей
Высота : 576 пикселей
Соотношение сторон : 4:3
Режим частоты кадров : Постоянный
Частота кадров : 25,000 кадров/сек
Стандарт вещания : PAL
Цветовое пространство : YUV
Субдискретизация насыщенности : 4:2:0
Битовая глубина : 8 бит
Тип развёртки : Чересстрочная
Порядок развёртки : Верхнее поле первое
Метод сжатия : С потерями
Бит/(Пиксели*Кадры) : 0.261
Временной код первого кадра : 00:00:00:00
Оригинал временного кода : Group of pictures header
Размер потока : 970 Мбайт (92%)
Default : Да
Forced : Нет
Аудио
Идентификатор : 2
Формат : MPEG Audio
Версия формата : Version 1
Профиль формата : Layer 2
Идентификатор кодека : A_MPEG/L2
Идентификатор кодека/Подсказка : MP2
Продолжительность : 50 м.
Вид битрейта : Постоянный
Битрейт : 192 Кбит/сек
Каналы : 2 канала
Частота : 48,0 КГц
Метод сжатия : С потерями
Размер потока : 68,9 Мбайт (6%)
Язык : Russian
Default : Да
Forced : Нет

Скриншоты

Резервные скриншоты

-
[teatrix.ru].t22775.torrent 
Торрент: Зарегистрирован [ 2016-03-21 00:21 ] · 92F8DA32BB334FC9FA7002F90AD19AC2F1B6F263

Скачать .torrent

Скачать

11 KB

Статус: проверено
Скачан: 0 раз
Размер: 1.04 GB
terms.php



Быстрый ответ

Имя:

      
Для отправки сообщений необходимо включить JavaScript
Показать сообщения:    

Текущее время: 10-Дек 06:09

Часовой пояс: UTC + 3


Вы можете начинать темы
Вы можете отвечать на сообщения
Вы не можете редактировать свои сообщения
Вы не можете удалять свои сообщения
Вы не можете голосовать в опросах
Вы не можете прикреплять файлы к сообщениям
Вы можете скачивать файлы