Страна ОЗ (Василий Сигарев) [2015, Россия, комедия, WEB-DLRip]


Статистика раздачи [Обновить пиров]
Размер:  1.46 GB   |    Зарегистрирован:  8 месяцев 13 дней   |    Скачан:  0 раз

Полного источника не было: Никогда

 
   
 
 
 

[Цитировать]

Страна ОЗ

Страна: Россия
Жанр: комедия
Год выпуска: 2015
Продолжительность: 01:39:48
Перевод: Не требуется
Cубтитры: нет

Режиссер: Василий Сигарев
В ролях: Яна Троянова, Гоша Куценко, Андрей Ильенков, Александр Баширов, Евгений Цыганов, Владимир Симонов, Инна Чурикова, Светлана Камынина, Юлия Снигирь, Алиса Хазанова
Описание: Новый год в России — стихия неуправляемая и беспощадная. Именно в это волшебное время непостижимый колорит русской души проявляет себя во всей красе. Пока жители Екатеринбурга готовятся к главному национальному празднику и шинкуют оливье, Ленка Шабадинова спешит до боя курантов принять смену в киоске на улице Торфорезов. Но она даже не подозревает, что новогодняя ночь приготовила для нее свой безумный сценарий.---Внимание - Присутствует ненормативная лексика !!!---Качество видео: WEB-DLRip
Формат видео: AVI
Видео: 720x384 (1.88:1), 24 fps, XviD build 73 ~1695 kbps avg, 0.26 bit/pixel
Аудио: 48 kHz, AC3 Dolby Digital, 3/2 (L,C,R,l,r) + LFE ch, ~384 kbps

MediaInfo

Общее
Полное имя : H:\Страна.ОЗ.2015.web-dlrip_[1.46]_[teko].avi
Формат : AVI
Формат/Информация : Audio Video Interleave
Размер файла : 1,46 Гбайт
Продолжительность : 1 ч. 39 м.
Общий поток : 2089 Кбит/сек
Программа кодирования : VirtualDubMod 1.5.10.3 | www.virtualdub-fr.org || (build 2550/release)
Библиотека кодирования : VirtualDubMod build 2550/release
Видео
Идентификатор : 0
Формат : MPEG-4 Visual
Профиль формата : Advanced Simple@L5
Параметр BVOP формата : 1
Параметр QPel формата : Нет
Параметр GMC формата : Без точки перехода
Параметр матрицы формата : Выборочная
Идентификатор кодека : XVID
Идентификатор кодека/Подсказка : XviD
Продолжительность : 1 ч. 39 м.
Битрейт : 1696 Кбит/сек
Ширина : 720 пикселей
Высота : 384 пикселя
Соотношение сторон : 1,85:1
Частота кадров : 24,000 кадра/сек
Цветовое пространство : YUV
Субдискретизация насыщенности : 4:2:0
Битовая глубина : 8 бит
Тип развёртки : Прогрессивная
Метод сжатия : С потерями
Бит/(Пиксели*Кадры) : 0.256
Размер потока : 1,18 Гбайт (81%)
Библиотека кодирования : XviD 73
Аудио
Идентификатор : 1
Формат : AC-3
Формат/Информация : Audio Coding 3
Расширение режима : CM (complete main)
Параметр Endianness формата : Big
Идентификатор кодека : 2000
Продолжительность : 1 ч. 39 м.
Вид битрейта : Постоянный
Битрейт : 384 Кбит/сек
Каналы : 6 каналов
Расположение каналов : Front: L C R, Side: L R, LFE
Частота : 48,0 КГц
Битовая глубина : 16 бит
Метод сжатия : С потерями
Размер потока : 274 Мбайт (18%)
Выравнивание : Разделение по промежуткам
Продолжительность промежутка : 42 мс. (1,00 видеокадр)
Время предзагрузки промежутка : 500 мс.
[teatrix.ru].t22777.torrent 
Торрент: Зарегистрирован [ 2016-03-21 00:21 ] · 037B8C2EB494131E552B3F5906BBAC74255EE8B1

Скачать .torrent

Скачать

15 KB

Статус: проверено
Скачан: 0 раз
Размер: 1.46 GB
terms.php



Быстрый ответ

Имя:

      
Для отправки сообщений необходимо включить JavaScript
Показать сообщения:    

Текущее время: 03-Дек 20:43

Часовой пояс: UTC + 3


Вы можете начинать темы
Вы можете отвечать на сообщения
Вы не можете редактировать свои сообщения
Вы не можете удалять свои сообщения
Вы не можете голосовать в опросах
Вы не можете прикреплять файлы к сообщениям
Вы можете скачивать файлы