Связанные насмерть / Одна судьба на двоих / Скованные намертво / Dead Ringers (Дэвид Кроненберг / David Cronenberg) [1988, Канада, США, драма, ужасы, триллер, BDRip] MVO + AVO (Михалёв) + Sub Rus, Eng + Original Eng


 

[Цитировать]

Связанные насмерть / Одна судьба на двоих / Cкованные намертво / Dead Ringers
Страна: Канада, США
Жанр: драма, ужасы, триллер
Год выпуска: 1988
Продолжительность: 01:50:59
Перевод: Профессиональный (многоголосый закадровый)
Перевод: Авторский (одноголосый закадровый) - Алексей Михалёв
Cубтитры: русские, английские
Оригинальная аудиодорожка: английский

Режиссер: Дэвид Кроненберг / David Cronenberg
В ролях: Джереми Айронс, Женевьев Бюжо, Хайди фон Паллеске, Барбара Гордон, Ширли Дуглас, Стивен Лэк, Ник Николс, Линн Кормэк, Дамир Андрей, Мириам Ньюхаус
Описание: Два тела. Два разума. Одна душа. Братья Мэнтл — абсолютно идентичные близнецы. Оба они врачи и работают вместе. Эллиот искусней Бева в деле соблазнения женщин и охотно «дарит» брату своих любовниц, которые и не подозревают о «подмене». Но когда их клинику посещает кинозвезда Клэр, застенчивый Бев влюбляется в нее первым. Клэр, сама того не ведая, начинает встречаться с обоими братьями. Смогут ли они «поделить» любимую женщину или, пытаясь найти утешение в наркотиках и алкоголе, погрузятся в пучину безумия?

Качество видео: BDRip [Dead.Ringers.1988.BDRemux.HDTracker]
Формат видео: AVI
Видео: 704x400 (1.76:1), 25 fps, XviD build 73 ~1677 kbps avg, 0.24 bit/pixel
Аудио: 48 kHz, AC3 Dolby Digital, 2/0 (L,R) ch, ~192 kbps - многоголосый
отдельными файлами:
Аудио: 48 kHz, AC3 Dolby Digital, 2/0 (L,R) ch, ~192 kbps - авторский
Аудио: 48 kHz, AC3 Dolby Digital, 2/0 (L,R) ch, ~192 kbps - оригинал

MediaInfo

Общее
Полное имя : H:\Dead.Ringers.1988.bdrip_[1.45]_[teko]\Dead.Ringers.1988.bdrip_[1.45].avi
Формат : AVI
Формат/Информация : Audio Video Interleave
Размер файла : 1,46 Гбайт
Продолжительность : 1 ч. 50 м.
Общий поток : 1879 Кбит/сек
Программа кодирования : VirtualDubMod 1.5.10.3 | www.virtualdub-fr.org || (build 2550/release)
Библиотека кодирования : VirtualDubMod build 2550/release
Видео
Идентификатор : 0
Формат : MPEG-4 Visual
Профиль формата : Advanced Simple@L5
Параметр BVOP формата : 1
Параметр QPel формата : Нет
Параметр GMC формата : Без точки перехода
Параметр матрицы формата : Выборочная
Идентификатор кодека : XVID
Идентификатор кодека/Подсказка : XviD
Продолжительность : 1 ч. 50 м.
Битрейт : 1678 Кбит/сек
Ширина : 704 пикселя
Высота : 400 пикселей
Соотношение сторон : 16:9
Частота кадров : 25,000 кадров/сек
Цветовое пространство : YUV
Субдискретизация насыщенности : 4:2:0
Битовая глубина : 8 бит
Тип развёртки : Прогрессивная
Метод сжатия : С потерями
Бит/(Пиксели*Кадры) : 0.238
Размер потока : 1,30 Гбайт (89%)
Библиотека кодирования : XviD 73
Аудио
Идентификатор : 1
Формат : AC-3
Формат/Информация : Audio Coding 3
Расширение режима : CM (complete main)
Параметр Endianness формата : Big
Идентификатор кодека : 2000
Продолжительность : 1 ч. 50 м.
Вид битрейта : Постоянный
Битрейт : 192 Кбит/сек
Каналы : 2 канала
Расположение каналов : Front: L R
Частота : 48,0 КГц
Битовая глубина : 16 бит
Метод сжатия : С потерями
Размер потока : 152 Мбайт (10%)
Выравнивание : Разделение по промежуткам
Продолжительность промежутка : 40 мс. (1,00 видеокадр)
Время предзагрузки промежутка : 500 мс.



Показать сообщения:    

Текущее время: 08-Дек 19:09

Часовой пояс: UTC + 3


Вы не можете начинать темы
Вы не можете отвечать на сообщения
Вы не можете редактировать свои сообщения
Вы не можете удалять свои сообщения
Вы не можете голосовать в опросах
Вы не можете прикреплять файлы к сообщениям
Вы не можете скачивать файлы