Прощай, Соло / Goodbye Solo (Рамин Бахрани / Ramin Bahrani) [2008, США, драма, мамблкор, DVDRip] VO (onnline0424)


Статистика раздачи [Обновить пиров]
Размер:  1.33 GB   |    Зарегистрирован:  8 месяцев 21 день   |    Скачан:  3 раза
Сидов:  1  [  0 KB/s  ]   Подробная статистика пиров
 
   
 
 
 

[Цитировать]

Прощай, Соло / Goodbye Solo
Страна: США
Жанр: драма, мамблкор
Год выпуска: 2008
Продолжительность: 01:30:59
Перевод: Одноголосый закадровый onnline0424
Cубтитры: нет
Режиссер: Рамин Бахрани / Ramin Bahrani
В ролях: Соулеймейн Сай Савейн, Ред Уэст, Диана Франко Галиндо, Кармен Лейва
Описание: Два совершенно разных человека знакомятся в такси. Пожилой, замкнутый, одинокий и, похоже, очень несчастный Уильям и водитель такси — тридцатилетний общительный, любопытный, разговорчивый сенегальский иммигрант Соло. Уильям предлагает Соло сделку: через несколько недель, точнее 20 октября, он должен приехать за ним в 8 утра и отвезти его в скалистый заповедник «Ветряная Гора». Путь неблизкий, за работу Уильям предлагает $1000 и не говорит, когда его нужно будет забрать. Соло понимает, что Уильям планирует самоубийство…
Доп. информация: IMDb: 7.4/10 from 3,481 users
Сэмпл: https://youtu.be/mxwG83g2IFI
Качество видео: DVDRip
Формат видео: AVI
Видео: 720x400 (1.80:1), 23.976 fps, XviD MPEG-4 ~1761 kbps avg, 0.26 bit/pixel
Аудио: MPEG Layer 3, 44.100 kHz, 2/0 (L,R) ch, 320.00 kbps

MediaInfo

Общее
Полное имя : E:\Goodbye.Solo.2008.DVDRip.Rus.VS.avi
Формат : AVI
Формат/Информация : Audio Video Interleave
Размер файла : 1,33 Гбайт
Продолжительность : 1 ч. 30 м.
Общий поток : 2091 Кбит/сек
Программа кодирования : VirtualDubMod 1.5.10.2 (build 2540/release)
Библиотека кодирования : VirtualDub build 35390/release
Видео
Идентификатор : 0
Формат : MPEG-4 Visual
Профиль формата : Advanced Simple@L5
Параметр BVOP формата : 2
Параметр QPel формата : Нет
Параметр GMC формата : Без точки перехода
Параметр матрицы формата : Default (H.263)
Режим смешивания : Сжатый битовый поток
Идентификатор кодека : XVID
Идентификатор кодека/Подсказка : XviD
Продолжительность : 1 ч. 30 м.
Битрейт : 1761 Кбит/сек
Ширина : 720 пикселей
Высота : 400 пикселей
Соотношение сторон : 16:9
Частота кадров : 23,976 кадра/сек
Цветовое пространство : YUV
Субдискретизация насыщенности : 4:2:0
Битовая глубина : 8 бит
Тип развёртки : Прогрессивная
Метод сжатия : С потерями
Бит/(Пиксели*Кадры) : 0.255
Размер потока : 1,12 Гбайт (84%)
Библиотека кодирования : XviD 1.2.1 (UTC 2008-12-04)
Аудио
Идентификатор : 1
Формат : MPEG Audio
Версия формата : Version 1
Профиль формата : Layer 3
Идентификатор кодека : 55
Идентификатор кодека/Подсказка : MP3
Продолжительность : 1 ч. 30 м.
Вид битрейта : Постоянный
Битрейт : 320 Кбит/сек
Каналы : 2 канала
Частота : 44,1 КГц
Метод сжатия : С потерями
Размер потока : 208 Мбайт (15%)
Выравнивание : Разделение по промежуткам
Продолжительность промежутка : 42 мс. (1,00 видеокадр)
Время предзагрузки промежутка : 500 мс.
Библиотека кодирования : LAME3.99r
Настройки программы : -m s -V 4 -q 3 -lowpass 20.5

Скриншот c названием фильма

Скриншоты

Это мой первый перевод, и так же первая раздача, не судите строго, и приятного просмотра.
[teatrix.ru].t22780.torrent 
Торрент: Зарегистрирован [ 2016-03-21 00:46 ] · CDF708FCC274E7EFE563FC21C7C3C5CD6015CA49

Скачать .torrent

Скачать

14 KB

Статус: проверено
Скачан: 3 раз
Размер: 1.33 GB
terms.php



Быстрый ответ

Имя:

      
Для отправки сообщений необходимо включить JavaScript
Показать сообщения:    

Текущее время: 11-Дек 05:21

Часовой пояс: UTC + 3


Вы можете начинать темы
Вы можете отвечать на сообщения
Вы не можете редактировать свои сообщения
Вы не можете удалять свои сообщения
Вы не можете голосовать в опросах
Вы не можете прикреплять файлы к сообщениям
Вы можете скачивать файлы