(Classical) The Very Best of Myung-Whun Chung (Piazzolla, Beethoven, Dvorak, Bach, Verdi, Bizet, Berlioz, Прокофьев, Mozart, Rossini, Handel, Faure, Gounod, Bruckner, Стравинский, Pergolesi, Messiaen, Vivaldi) - 2005, FLAC (image+.cue) lossless


 

[Цитировать]

The Very Best of Myung-Whun Chung
Жанр: Classical
Страна-производитель диска: South Korea
Год издания диска: 2005
Издатель (лейбл): Universal, Deutsche Grammophon
Номер по каталогу: DG7134
Дата записи: 1983-2004
Аудиокодек: FLAC
Тип рипа: image+.cue
Битрейт аудио: lossless
Источник: собственный рип
Наличие сканов в содержимом раздачи: да
Треклист:

Disk 1

1. Piazzolla - Libertango
Hector Ulises Passarella (bandoneon)
Luis Bacalov (piano)
Orchestra dell'Accademia Nazionale di Santa Cecillia

2. Beethoven - Violin Romance in F Major, Op.50
Kyung-Wha Chung (violin)
Philharmonia Orchestra

3. Dvorak - Symphony No.8 / III. Allegretto grazioso
Wiener Philharmoniker
4. J.S. Bach - Jesus bleibet meine Freude
Coro dell'Accademia Nazionale di Santa Cecillia
Orchestra dell'Accademia Nazionale di Santa Cecillia

5. Verdi - Nabuco / Va' pensiero sull'ali dorate
Coro dell'Accademia Nazionale di Santa Cecillia
Orchestra dell'Accademia Nazionale di Santa Cecillia

6. Bizet - Carmen Suite / Les Toreadors from Carmen
Orchestre de la Bastille
7. Bizet - I'Arlesienne Suite No.1 / Prelude
Orchestre de la Bastille
8. Berlioz - Symphonie Fantastique, Op.14 / IV. Marche au supplice
Orchestre de la Bastille
9. Prokofiev - Romeo and Juliet / The Montagues and the Capulets
Royal Concertgebow Orchestra
10. W.A. Mozart - Ave verum corpus, K.618
Coro dell'Accademia Nazionale di Santa Cecillia
Orchestra dell'Accademia Nazionale di Santa Cecillia

11. Rossini - Stabat Mater / Cujus animam gementem
Raul Gimenez (tenor)
Wiener Philharmoniker

12. Beethoven - Triple Concerto / II. Largo
Myung-Whun Chung (piano & conductor)
Kyung-Wha Chung (violin)
Myung-Wha Chung (violoncello)
Philharmonia Orchestra

13. Beethoven - Romance cantabile for piano, flute and bassoon
Patrick Gallois (flute)
Pascal Gallois (bassoon)
Philharmonia Orchestra

Disk 2

1. Handel - Messiah / Hallelujah Chorus
Coro dell'Accademia Nazionale di Santa Cecillia
Orchestra dell'Accademia Nazionale di Santa Cecillia

2. Faure - Requiem, Op.48 / Libera me
Bryn Tefel (bass baritone)
Coro dell'Accademia Nazionale di Santa Cecillia
Orchestra dell'Accademia Nazionale di Santa Cecillia

3. W.A. Mozart - Requiem in D minor, K.626 / III. Sequentia - Lacrimosa
Coro dell'Accademia Nazionale di Santa Cecillia
Orchestra dell'Accademia Nazionale di Santa Cecillia

4. Bizet - I'arlesienne suite No.2 / Farandole
Orchestre de la Bastille
5. Verdi - La Traviata (Act I) / Prelude
Orchestra dell'Accademia Nazionale di Santa Cecillia
6. Berlioz - Marche Hongroise
Anne Sofie von Otter (mezzo soprano)
Philharmonia Orchestra

7. Berlioz - D'amour l'ardente flamme
Anne Sofie von Otter (mezzo soprano)
Philharmonia Orchestra

8. Gounod - Marche Pontificale
Orchestra dell'Accademia Nazionale di Santa Cecillia
9. Bruckner - Locus Iste, WAB 23
Coro dell'Accademia Nazionale di Santa Cecillia
Orchestra dell'Accademia Nazionale di Santa Cecillia

10. Dvorak - Serenade in E Major for String Orchestra, Op.22 / I. Moderato
Wiener Philharmoniker
11. Stravinsky - L'Oiseau de feu / V. Finale
Orchestre de l'Opera Bastille
12. Pergolesi - L'olimpiade / Sinfonia
Orchestra dell'Accademia Nazionale di Santa Cecillia
13. Messiaen - Turangalila Symphonie / Turangalila 1
Yvonne Loriod (piano)
Jeanne Loriod (ondes martenot)
Orchestre de l'Opera Bastille

14. Vivaldi - Gloria in D Major, RV 589 / Gloria in excelsis Deo
Coro dell'Accademia Nazionale di Santa Cecillia
Orchestra dell'Accademia Nazionale di Santa Cecillia

Лог создания рипа

Disk 1

Exact Audio Copy V1.0 beta 3 from 29. August 2011
EAC extraction logfile from 3. January 2016, 14:52
정명훈 / The Very Best Of MyungWhun Chung-CD1
Used drive : TSSTcorpCDDVDW SH-216AB Adapter: 2 ID: 0
Read mode : Secure
Utilize accurate stream : Yes
Defeat audio cache : No
Make use of C2 pointers : Yes
Read offset correction : 6
Overread into Lead-In and Lead-Out : No
Fill up missing offset samples with silence : Yes
Delete leading and trailing silent blocks : No
Null samples used in CRC calculations : Yes
Used interface : Native Win32 interface for Win NT & 2000
Used output format : User Defined Encoder
Selected bitrate : 896 kBit/s
Quality : High
Add ID3 tag : No
Command line compressor : C:\Users\mlul\Desktop\aa\App\EAC\Flac\flac.exe
Additional command line options : -8 -V -T "ARTIST=%artist%" -T "TITLE=%title%" -T "ALBUM=%albumtitle%" -T "DATE=%year%" -T "TRACKNUMBER=%tracknr%" -T "GENRE=%genre%" -T "PERFORMER=%albuminterpret%" -T "COMPOSER=%composer%" %haslyrics%–tag-from-file=LYRICS="%lyricsfile%"%haslyrics% -T "ALBUMARTIST=%albumartist%" -T "DISCNUMBER=%cdnumber%" -T "TOTALDISCS=%totalcds%" -T "TOTALTRACKS=%numtracks%" -T "COMMENT=%comment%" %source% -o %dest%
TOC of the extracted CD
Track | Start | Length | Start sector | End sector
---------------------------------------------------------
1 | 0:00.00 | 5:37.25 | 0 | 25299
2 | 5:37.25 | 8:18.27 | 25300 | 62676
3 | 13:55.52 | 5:57.41 | 62677 | 89492
4 | 19:53.18 | 2:33.03 | 89493 | 100970
5 | 22:26.21 | 4:53.66 | 100971 | 123011
6 | 27:20.12 | 2:06.49 | 123012 | 132510
7 | 29:26.61 | 7:08.33 | 132511 | 164643
8 | 36:35.19 | 4:31.04 | 164644 | 184972
9 | 41:06.23 | 4:12.66 | 184973 | 203938
10 | 45:19.14 | 3:35.55 | 203939 | 220118
11 | 48:54.69 | 5:28.61 | 220119 | 244779
12 | 54:23.55 | 5:04.59 | 244780 | 267638
13 | 59:28.39 | 4:52.02 | 267639 | 289540
Range status and errors
Selected range
Filename C:\Users\mlul\Desktop\CD1.wav
Peak level 96.3 %
Extraction speed 17.6 X
Range quality 100.0 %
Test CRC 26625728
Copy CRC 26625728
Copy OK
No errors occurred
End of status report
---- CUETools DB Plugin V2.1.3
[CTDB TOCID: NC.Btg3IRYuBO62LLsBhGTCwLDQ-] found, Submit result: NC.Btg3IRYuBO62LLsBhGTCwLDQ- has been confirmed
[6dd89a63] (4/4) Accurately ripped
==== Log checksum D4E56AF1F1A1B945F7BE54C4F70D5A7FDBF3901E7776B71F04C7A6E2AFA826CE ====

Disk 2

Exact Audio Copy V1.0 beta 3 from 29. August 2011
EAC extraction logfile from 3. January 2016, 15:02
정명훈 / The Very Best Of MyungWhun Chung (DG)-CD2
Used drive : TSSTcorpCDDVDW SH-216AB Adapter: 2 ID: 0
Read mode : Secure
Utilize accurate stream : Yes
Defeat audio cache : No
Make use of C2 pointers : Yes
Read offset correction : 6
Overread into Lead-In and Lead-Out : No
Fill up missing offset samples with silence : Yes
Delete leading and trailing silent blocks : No
Null samples used in CRC calculations : Yes
Used interface : Native Win32 interface for Win NT & 2000
Used output format : User Defined Encoder
Selected bitrate : 896 kBit/s
Quality : High
Add ID3 tag : No
Command line compressor : C:\Users\mlul\Desktop\aa\App\EAC\Flac\flac.exe
Additional command line options : -8 -V -T "ARTIST=%artist%" -T "TITLE=%title%" -T "ALBUM=%albumtitle%" -T "DATE=%year%" -T "TRACKNUMBER=%tracknr%" -T "GENRE=%genre%" -T "PERFORMER=%albuminterpret%" -T "COMPOSER=%composer%" %haslyrics%–tag-from-file=LYRICS="%lyricsfile%"%haslyrics% -T "ALBUMARTIST=%albumartist%" -T "DISCNUMBER=%cdnumber%" -T "TOTALDISCS=%totalcds%" -T "TOTALTRACKS=%numtracks%" -T "COMMENT=%comment%" %source% -o %dest%
TOC of the extracted CD
Track | Start | Length | Start sector | End sector
---------------------------------------------------------
1 | 0:00.00 | 3:16.22 | 0 | 14721
2 | 3:16.22 | 4:51.23 | 14722 | 36569
3 | 8:07.45 | 3:41.45 | 36570 | 53189
4 | 11:49.15 | 3:21.26 | 53190 | 68290
5 | 15:10.41 | 4:08.71 | 68291 | 86961
6 | 19:19.37 | 4:38.51 | 86962 | 107862
7 | 23:58.13 | 8:17.05 | 107863 | 145142
8 | 32:15.18 | 2:35.00 | 145143 | 156767
9 | 34:50.18 | 3:47.57 | 156768 | 173849
10 | 38:38.00 | 4:23.10 | 173850 | 193584
11 | 43:01.10 | 3:46.04 | 193585 | 210538
12 | 46:47.14 | 5:42.70 | 210539 | 236258
13 | 52:30.09 | 5:22.43 | 236259 | 260451
14 | 57:52.52 | 2:04.53 | 260452 | 269804
Range status and errors
Selected range
Filename C:\Users\mlul\Desktop\CD2.wav
Peak level 96.4 %
Extraction speed 17.2 X
Range quality 100.0 %
Test CRC 9CA83B21
Copy CRC 9CA83B21
Copy OK
No errors occurred
End of status report
---- CUETools DB Plugin V2.1.3
[CTDB TOCID: wSeBlUeuNoDJs.DxLdGMkXsiQeg-] found, Submit result: wSeBlUeuNoDJs.DxLdGMkXsiQeg- has been confirmed
[8aff286a] (4/4) Accurately ripped
==== Log checksum 1794CBCD04228E86B7050269CE893FE4A5C7721EC9106751285D64110C471A36 ====

Содержание индексной карты (.CUE)

[pre]

Disk 1

REM GENRE Classical
REM DATE 2006
REM DISCID CC0F140D
REM COMMENT "ExactAudioCopy v1.0b3"
PERFORMER "Myung-Whun Chung"
TITLE "The Very Best Of MyungWhun Chung-CD1"
FILE "CD1.flac" WAVE
TRACK 01 AUDIO
TITLE "Piazzolla - Libertango"
PERFORMER "Myung-Whun Chung"
INDEX 01 00:00:00
TRACK 02 AUDIO
TITLE "Beethoven - Violin Romance in F Major, Op.50"
PERFORMER "Myung-Whun Chung"
INDEX 00 05:36:70
INDEX 01 05:37:25
TRACK 03 AUDIO
TITLE "Dvorak - Symphony No.8 / III. Allegretto grazioso"
PERFORMER "Myung-Whun Chung"
INDEX 00 13:54:53
INDEX 01 13:55:52
TRACK 04 AUDIO
TITLE "J.S. Bach - Jesus bleibet meine Freude"
PERFORMER "Myung-Whun Chung"
INDEX 00 19:51:54
INDEX 01 19:53:18
TRACK 05 AUDIO
TITLE "Verdi - Nabuco / Va' pensiero sull'ali dorate"
PERFORMER "Myung-Whun Chung"
INDEX 00 22:24:65
INDEX 01 22:26:21
TRACK 06 AUDIO
TITLE "Bizet - Carmen Suite / Les Toreadors from Carmen"
PERFORMER "Myung-Whun Chung"
INDEX 00 27:19:10
INDEX 01 27:20:12
TRACK 07 AUDIO
TITLE "Bizet - I'Arlesienne Suite No.1 / Prelude"
PERFORMER "Myung-Whun Chung"
INDEX 00 29:23:73
INDEX 01 29:26:61
TRACK 08 AUDIO
TITLE "Berlioz - Symphonie Fantastique, Op.14 / IV. Marche au supplice"
PERFORMER "Myung-Whun Chung"
INDEX 00 36:35:03
INDEX 01 36:35:19
TRACK 09 AUDIO
TITLE "Prokofiev - Romeo and Juliet / The Montagues and the Capulets"
PERFORMER "Myung-Whun Chung"
INDEX 00 41:04:42
INDEX 01 41:06:23
TRACK 10 AUDIO
TITLE "Mozart - Ave verum corpus K.618"
PERFORMER "Myung-Whun Chung"
INDEX 00 45:17:16
INDEX 01 45:19:14
TRACK 11 AUDIO
TITLE "Rossini - Stabat Mater / Cujus animam gementem"
PERFORMER "Myung-Whun Chung"
INDEX 00 48:54:35
INDEX 01 48:54:69
TRACK 12 AUDIO
TITLE "Beethoven - Triple Concerto / II. Largo"
PERFORMER "Myung-Whun Chung"
INDEX 01 54:23:55
TRACK 13 AUDIO
TITLE "Beethoven - Romance cantabile for piano, flute and bassoon"
PERFORMER "Myung-Whun Chung"
INDEX 00 59:25:15
INDEX 01 59:28:39

Disk 2

REM GENRE Classical
REM DATE 2006
REM DISCID BA0E0D0E
REM COMMENT "ExactAudioCopy v1.0b3"
PERFORMER "Myung-Whun Chung"
TITLE "The Very Best Of MyungWhun Chung (DG)-CD2"
FILE "CD2.flac" WAVE
TRACK 01 AUDIO
TITLE "Handel - Messiah / Hallelujah Chorus"
PERFORMER "Myung-Whun Chung"
INDEX 01 00:00:00
TRACK 02 AUDIO
TITLE "Faure - Requiem, Op.48 / Libera me"
PERFORMER "Myung-Whun Chung"
INDEX 00 03:15:00
INDEX 01 03:16:22
TRACK 03 AUDIO
TITLE "W.A. Mozart - Requiem in D minor, K.626 / III. Sequentia - Lacrimosa"
PERFORMER "Myung-Whun Chung"
INDEX 00 08:06:31
INDEX 01 08:07:45
TRACK 04 AUDIO
TITLE "Bizet - I'arlesienne suite No.2 / Farandole"
PERFORMER "Myung-Whun Chung"
INDEX 00 11:48:00
INDEX 01 11:49:15
TRACK 05 AUDIO
TITLE "Verdi - La Traviata (Act I) / Prelude"
PERFORMER "Myung-Whun Chung"
INDEX 00 15:09:17
INDEX 01 15:10:41
TRACK 06 AUDIO
TITLE "Berlioz - Marche Hongroise"
PERFORMER "Myung-Whun Chung"
INDEX 00 19:19:09
INDEX 01 19:19:37
TRACK 07 AUDIO
TITLE "Berlioz - D'amour l'ardente flamme"
PERFORMER "Myung-Whun Chung"
INDEX 00 23:58:00
INDEX 01 23:58:13
TRACK 08 AUDIO
TITLE "Gounod - Marche Pontificale"
PERFORMER "Myung-Whun Chung"
INDEX 00 32:12:53
INDEX 01 32:15:18
TRACK 09 AUDIO
TITLE "Bruckner - Locus Iste, WAB 23"
PERFORMER "Myung-Whun Chung"
INDEX 00 34:49:04
INDEX 01 34:50:18
TRACK 10 AUDIO
TITLE "Dvorak - Serenade in E Major for String Orchestra, Op.22 / I. Moderato"
PERFORMER "Myung-Whun Chung"
INDEX 00 38:36:70
INDEX 01 38:38:00
TRACK 11 AUDIO
TITLE "Stravinsky - L'Oiseau de feu / V. Finale"
PERFORMER "Myung-Whun Chung"
INDEX 00 42:59:55
INDEX 01 43:01:10
TRACK 12 AUDIO
TITLE "Pergolesi - L'olimpiade / Sinfonia"
PERFORMER "Myung-Whun Chung"
INDEX 00 46:45:06
INDEX 01 46:47:14
TRACK 13 AUDIO
TITLE "Messiaen - Turangalila Symphonie / Turangalila 1"
PERFORMER "Myung-Whun Chung"
INDEX 00 52:28:20
INDEX 01 52:30:09
TRACK 14 AUDIO
TITLE "Vivaldi - Gloria in D Major, RV 589 / Gloria in excelsis Deo"
PERFORMER "Myung-Whun Chung"
INDEX 00 57:51:54
INDEX 01 57:52:52



Показать сообщения:    

Текущее время: 03-Дек 18:43

Часовой пояс: UTC + 3


Вы не можете начинать темы
Вы не можете отвечать на сообщения
Вы не можете редактировать свои сообщения
Вы не можете удалять свои сообщения
Вы не можете голосовать в опросах
Вы не можете прикреплять файлы к сообщениям
Вы не можете скачивать файлы