Моя профессия - синьор из общества (Михаил Салес) [2012 г., Комедия, WEB-DLRip] Калининградский областной драматический театр


 

[Цитировать]

Моя профессия - синьор из общества Название театра: Калининградский областной драматический театр.
Год выпуска: 2012.
Жанр: Комедия в 2-х действиях.
Продолжительность: 02:08:38.
Режиссер-постановщик: народный артист России Михаил Салес.
Действующие лица и исполнители:
Леонидо Папагатто - заслуженный артист Марий Эл Александр Егоров,
Валерия, его жена - Наталья Салес,
Фьорелла, их дочь - Мария Авраменко,
Роберто, их сын - Михаил Шевяков,
Матильда, сестра Леонидо - заслуженная артистка России Наталья Высоцкая,
Антонио, их сосед - Алексей Грызунов,
Илона Чибор, светская дама - Людмила Козлова,
Никола Чибор, ее сын - Павел Сибиряков,
Раймондо Чибор, дядя Николы - Геннадий Марьев,
Графиня Кьярелли Д`Адда - заслуженная артистка Грузии Тамара Грузец,
Альфонсо Кьочча, барон - заслуженный артист Таджикистана Юрий Харламбов,
Алессандро, слуга Чибор - Максим Махинов,
Веллуто - заслуженный артист Грузии Волемир Грузец,
Дедушка, в прошлом адъютант, 94 лет - заслуженный артист России Альберт Арнтгольц,
Витторио, разносчик газет - Василий Швечков (мл.).
О спектакле:
Семья синьора Леонидо живёт за счёт его изобретательного мошенничества. Авантюра следует за авантюрой, интрига накручивается на интригу, но великий комбинатор Папагатто уверенно лавирует между препятствиями. И помогают ему в этом ещё более бедные, но не менее талантливые друзья-авантюристы и его личный ангел-хранитель, любовь всей его жизни - Валерия...
Дополнительная информация:
Страна: Россия .
Авторы: Джулио Скарначчи и Ренцо Тарабузи.
Перевод: Валерий Хазанов.
Художник-постановщик: Владимир Козлов.
Художник по костюмам: Татьяна Старикова.
Музыкальное оформление: заслуженный деятель искусств России Аркадий Фельдман.
Премьера спектакля состоялась 8 декабря 2012 года.

О спектакле.
Релиз
Рип sharky.

Качество видео:...WEB-DLRip
Формат:.................AVI
Видео:..704x384 (1.83:1), 25 fps, DivX Codec 4.x ~1477 kbps avg, 0.22 bit/pixel
Аудио:..44.100 kHz, MPEG Layer 3, 2 ch, ~128.00 kbps avg

Отчет MI

Общее
Полное имя : Moya.professiya.sin'yor.iz.obwestva_Kaliningradskij.ODT.2012.DivX.WEB-DLRip.fenixclub.avi
Format : AVI
Format/Info : Audio Video Interleave
File size : 1.45 GiB
Duration : 2h 8mn
Overall bit rate : 1 615 Kbps
Video
ID : 0
Format : MPEG-4 Visual
Format settings, BVOP : 1
Format settings, QPel : No
Format settings, GMC : No warppoints
Format settings, Matrix : Default (H.263)
Codec ID : DX50
Codec ID/Hint : DivX 5
Duration : 2h 8mn
Bit rate : 1 477 Kbps
Width : 704 pixels
Height : 384 pixels
Display aspect ratio : 1.85:1
Frame rate : 25.000 fps
Color space : YUV
Chroma subsampling : 4:2:0
Bit depth : 8 bits
Scan type : Progressive
Compression mode : Lossy
Bits/(Pixel*Frame) : 0.219
Stream size : 1.33 GiB (91%)
Title : Video
Writing library : DivX 3013
Audio
ID : 1
Format : MPEG Audio
Format version : Version 1
Format profile : Layer 3
Codec ID : 55
Codec ID/Hint : MP3
Duration : 2h 8mn
Bit rate mode : Constant
Bit rate : 128 Kbps
Channel(s) : 2 channels
Sampling rate : 44.1 KHz
Compression mode : Lossy
Stream size : 118 MiB (8%)
Alignment : Split accross interleaves
Interleave, duration : 40 ms (1.00 video frame)
Interleave, preload duratio : 500 ms
Title : Audio

Скриншоты


Альтернативный хост





Показать сообщения:    

Текущее время: 06-Дек 11:15

Часовой пояс: UTC + 3


Вы не можете начинать темы
Вы не можете отвечать на сообщения
Вы не можете редактировать свои сообщения
Вы не можете удалять свои сообщения
Вы не можете голосовать в опросах
Вы не можете прикреплять файлы к сообщениям
Вы не можете скачивать файлы