(Choral) J.S.Bach - Kantaten: »Ich bin vergnugt mit meinem Glucke«, BWV 84 | »Gottes Zeit ist die allerbeste Zeit«, BWV 106 | »Wachet auf, ruft uns die Stimme«, BWV 140 (M.Laszlo • W.Kmentt • H.Scherchen) - 2004, FLAC (image+.cue) lossless


Статистика раздачи [Обновить пиров]
Размер:  180 MB   |    Зарегистрирован:  8 месяцев 19 дней   |    Скачан:  0 раз

Полного источника не было: Никогда

 
   
 
 
 

[Цитировать]

Johann Sebastian Bach - Kantaten:
»Ich bin vergnügt mit meinem Glücke«, BWV 84
»Gottes Zeit ist die allerbeste Zeit«, BWV 106
»Wachet auf, ruft uns die Stimme«, BWV 140
Wiener Staatsopernorchester - Hermann Scherchen
----- Жанр: Choral
Страна-производитель диска: EU
Год издания диска: 2004
Издатель (лейбл): Archipel
Дата записи: 1950/51
Аудиокодек: FLAC
Тип рипа: image+.cue
Битрейт аудио: lossless
Продолжительность: 72'44''
Источник: собственный рип
Наличие сканов в содержимом раздачи: да
Треклист:
»Ich bin vergnügt mit meinem Glücke«, BWV 84:
[01] Ich bin vergnügt mit meinem Glücke
[02] Gott ist mir ja nichts schuldig
[03] Ich esse mit Freuden mein weniges Brot
[04] Im Schweisse meines Angesichts
[05] Ich leb' indes' in dir vergnüget
»Gottes Zeit ist die allerbeste Zeit«, BWV 106:
[06] [Sonatina]
[07] Gottes Zeit ist die allerbeste Zeit
[08] Ach, Herr, lehre uns bedenken, dass wir sterben müssen
[09] Bestelle dein Haus, denn du wirst sterben
[10] Es ist der alte Bund: Mensch, du musst sterben!
[11] In deine Hände befehl' ich meinen Geist
[12] Heute wirst du mit mir im Paradies sein
[13] Glorie, Lob, Ehr' und Herrlichkeit
»Wachet auf, ruft uns die Stimme«, BWV 140:
[14] Wachet auf, ruft uns die Stimme
[15] Er kommt, er kommt, der Bräut'gam kommt!
[16] Wann kommst du, mein Heil?
[17] Zion hört die Wächter singen
[18] So geh' herein zu mir
[19] Mein Freund ist mein
[20] Gloria sei dir gesungen
Исполнители:
Magda László - soprano
Hilde Rössl-Majdan - contralto
Waldemar Kmentt - tenor
Alfred Poell - bass
Academy Choir
Wiener Staatsopernorchester
Hermann Scherchen
-

Лог создания рипа

Exact Audio Copy V1.0 beta 3 from 29. August 2011
EAC extraction logfile from 10. November 2013, 4:22
Hermann Scherchen / J.S.Bach - Kantaten 84, 106 und 140
Used drive : PHILIPS CDRW1610A Adapter: 0 ID: 0
Read mode : Secure
Utilize accurate stream : Yes
Defeat audio cache : Yes
Make use of C2 pointers : No
Read offset correction : 733
Overread into Lead-In and Lead-Out : No
Fill up missing offset samples with silence : Yes
Delete leading and trailing silent blocks : No
Null samples used in CRC calculations : Yes
Used interface : Native Win32 interface for Win NT & 2000
Used output format : User Defined Encoder
Selected bitrate : 896 kBit/s
Quality : High
Add ID3 tag : No
Command line compressor : C:\Program Files\FLAC\flac.exe
Additional command line options : -T "COMMENT=rip by el coronel" -8 -V %source%
TOC of the extracted CD
Track | Start | Length | Start sector | End sector
---------------------------------------------------------
1 | 0:00.00 | 7:25.16 | 0 | 33390
2 | 7:25.16 | 2:13.16 | 33391 | 43381
3 | 9:38.32 | 5:47.26 | 43382 | 69432
4 | 15:25.58 | 1:28.61 | 69433 | 76093
5 | 16:54.44 | 1:29.54 | 76094 | 82822
6 | 18:24.23 | 3:01.06 | 82823 | 96403
7 | 21:25.29 | 1:47.61 | 96404 | 104489
8 | 23:13.15 | 3:25.22 | 104490 | 119886
9 | 26:38.37 | 1:08.05 | 119887 | 124991
10 | 27:46.42 | 4:00.52 | 124992 | 143043
11 | 31:47.19 | 2:11.14 | 143044 | 152882
12 | 33:58.33 | 4:00.53 | 152883 | 170935
13 | 37:59.11 | 2:52.46 | 170936 | 183881
14 | 40:51.57 | 8:10.28 | 183882 | 220659
15 | 49:02.10 | 1:18.68 | 220660 | 226577
16 | 50:21.03 | 5:41.23 | 226578 | 252175
17 | 56:02.26 | 4:09.43 | 252176 | 270893
18 | 60:11.69 | 1:50.04 | 270894 | 279147
19 | 62:01.73 | 7:36.09 | 279148 | 313356
20 | 69:38.07 | 3:05.33 | 313357 | 327264
Range status and errors
Selected range
Filename D:\Musiс\J.S.Bach - Kantaten 84, 106 und 140 (Scherchen).wav
Peak level 89.1 %
Extraction speed 8.9 X
Range quality 100.0 %
Test CRC A453C43C
Copy CRC A453C43C
Copy OK
No errors occurred
AccurateRip summary
Track 1 accurately ripped (confidence 2) [A5F98CB2] (AR v2)
Track 2 accurately ripped (confidence 2) [8BCCB41C] (AR v2)
Track 3 accurately ripped (confidence 2) [E081DAFD] (AR v2)
Track 4 accurately ripped (confidence 2) [BDBFE156] (AR v2)
Track 5 accurately ripped (confidence 2) [ADF3D33C] (AR v2)
Track 6 accurately ripped (confidence 2) [57036127] (AR v2)
Track 7 accurately ripped (confidence 2) [B9C46DD3] (AR v2)
Track 8 accurately ripped (confidence 2) [43D923A8] (AR v2)
Track 9 accurately ripped (confidence 2) [BE86D4B3] (AR v2)
Track 10 accurately ripped (confidence 2) [1253027D] (AR v2)
Track 11 accurately ripped (confidence 2) [CBEFA52A] (AR v2)
Track 12 accurately ripped (confidence 2) [96F385C9] (AR v2)
Track 13 accurately ripped (confidence 2) [85EEC17F] (AR v2)
Track 14 accurately ripped (confidence 2) [230FB5C0] (AR v2)
Track 15 accurately ripped (confidence 2) [7B2CEA6E] (AR v2)
Track 16 accurately ripped (confidence 2) [DB67D542] (AR v2)
Track 17 accurately ripped (confidence 2) [DE08C8AE] (AR v2)
Track 18 accurately ripped (confidence 2) [187C106E] (AR v2)
Track 19 accurately ripped (confidence 2) [E72E17A2] (AR v2)
Track 20 accurately ripped (confidence 2) [9AAE2E98] (AR v2)
All tracks accurately ripped
End of status report
==== Log checksum 1707B0F1A322A300BB546B023CDDD3C30B39505D5A37F2829607B254C1B38667 ====

Содержание индексной карты (.CUE)

REM GENRE Chorus
REM DATE 2005
REM DISCID 09110B14
REM COMMENT "ExactAudioCopy v1.0b3"
PERFORMER "Hermann Scherchen"
TITLE "J.S.Bach - Kantaten 84, 106 und 140"
FILE "J.S.Bach - Kantaten 84, 106 und 140 (Scherchen).flac" WAVE
TRACK 01 AUDIO
TITLE "»Ich bin vergnugt mit meinem Glucke«, BWV 84: Ich bin vergnugt mit meinem Glucke"
PERFORMER "Hermann Scherchen; Vienna State Opera Orchestra"
FLAGS DCP
INDEX 01 00:00:00
TRACK 02 AUDIO
TITLE "Gott ist mir ja nichts schuldig"
PERFORMER "Hermann Scherchen; Vienna State Opera Orchestra"
FLAGS DCP
INDEX 01 07:25:16
TRACK 03 AUDIO
TITLE "Ich esse mit Freuden mein weniges Brot"
PERFORMER "Hermann Scherchen; Vienna State Opera Orchestra"
FLAGS DCP
INDEX 01 09:38:32
TRACK 04 AUDIO
TITLE "Im Schweisse meines Angesichts"
PERFORMER "Hermann Scherchen; Vienna State Opera Orchestra"
FLAGS DCP
INDEX 01 15:25:58
TRACK 05 AUDIO
TITLE "Ich leb' indes' in dir vergnuget"
PERFORMER "Hermann Scherchen; Vienna State Opera Orchestra"
FLAGS DCP
INDEX 01 16:54:44
TRACK 06 AUDIO
TITLE "»Gottes Zeit ist die allerbeste Zeit«, BWV 106: [Sonatina]"
PERFORMER "Hermann Scherchen; Vienna State Opera Orchestra"
FLAGS DCP
INDEX 00 18:20:23
INDEX 01 18:24:23
TRACK 07 AUDIO
TITLE "Gottes Zeit ist die allerbeste Zeit"
PERFORMER "Hermann Scherchen; Vienna State Opera Orchestra"
FLAGS DCP
INDEX 01 21:25:29
TRACK 08 AUDIO
TITLE "Ach, Herr, lehre uns bedenken, dass wir sterben mussen"
PERFORMER "Hermann Scherchen; Vienna State Opera Orchestra"
FLAGS DCP
INDEX 01 23:13:15
TRACK 09 AUDIO
TITLE "Bestelle dein Haus, denn du wirst sterben"
PERFORMER "Hermann Scherchen; Vienna State Opera Orchestra"
FLAGS DCP
INDEX 01 26:38:37
TRACK 10 AUDIO
TITLE "Es ist der alte Bund: Mensch, du musst sterben!"
PERFORMER "Hermann Scherchen; Vienna State Opera Orchestra"
FLAGS DCP
INDEX 01 27:46:42
TRACK 11 AUDIO
TITLE "In deine Hande befehl' ich meinen Geist"
PERFORMER "Hermann Scherchen; Vienna State Opera Orchestra"
FLAGS DCP
INDEX 01 31:47:19
TRACK 12 AUDIO
TITLE "Heute wirst du mit mir im Paradies sein"
PERFORMER "Hermann Scherchen; Vienna State Opera Orchestra"
FLAGS DCP
INDEX 01 33:58:33
TRACK 13 AUDIO
TITLE "Glorie, Lob, Ehr' und Herrlichkeit"
PERFORMER "Hermann Scherchen; Vienna State Opera Orchestra"
FLAGS DCP
INDEX 01 37:59:11
TRACK 14 AUDIO
TITLE "»Wachet auf, ruft uns die Stimme«, BWV 140: Wachet auf, ruft uns die Stimme"
PERFORMER "Hermann Scherchen; Vienna State Opera Orchestra"
FLAGS DCP
INDEX 00 40:47:57
INDEX 01 40:51:57
TRACK 15 AUDIO
TITLE "Er kommt, er kommt, der Braut'gam kommt!"
PERFORMER "Hermann Scherchen; Vienna State Opera Orchestra"
FLAGS DCP
INDEX 01 49:02:10
TRACK 16 AUDIO
TITLE "Wann kommst du, mein Heil?"
PERFORMER "Hermann Scherchen; Vienna State Opera Orchestra"
FLAGS DCP
INDEX 01 50:21:03
TRACK 17 AUDIO
TITLE "Zion hort die Wachter singen"
PERFORMER "Hermann Scherchen; Vienna State Opera Orchestra"
FLAGS DCP
INDEX 01 56:02:26
TRACK 18 AUDIO
TITLE "So geh' herein zu mir"
PERFORMER "Hermann Scherchen; Vienna State Opera Orchestra"
FLAGS DCP
INDEX 01 60:11:69
TRACK 19 AUDIO
TITLE "Mein Freund ist mein"
PERFORMER "Hermann Scherchen; Vienna State Opera Orchestra"
FLAGS DCP
INDEX 01 62:01:73
TRACK 20 AUDIO
TITLE "Gloria sei dir gesungen"
PERFORMER "Hermann Scherchen; Vienna State Opera Orchestra"
FLAGS DCP
INDEX 01 69:38:07
-
[teatrix.ru].t22784.torrent 
Торрент: Зарегистрирован [ 2016-03-21 00:29 ] · CB045347A0EB02BD732002D290E16233D77CB282

Скачать .torrent

Скачать

15 KB

Статус: проверено
Скачан: 0 раз
Размер: 180 MB
terms.php



Быстрый ответ

Имя:

      
Для отправки сообщений необходимо включить JavaScript
Показать сообщения:    

Текущее время: 09-Дек 06:58

Часовой пояс: UTC + 3


Вы можете начинать темы
Вы можете отвечать на сообщения
Вы не можете редактировать свои сообщения
Вы не можете удалять свои сообщения
Вы не можете голосовать в опросах
Вы не можете прикреплять файлы к сообщениям
Вы можете скачивать файлы