(Classical) Johann Sebastian Bach · Die Brandenburgischen Konzerte / The Brandenburg Concertos Nos. 1–6 (Hanover Band, Anthony Halstead) · 1992, FLAC (tracks+.cue) lossless


Статистика раздачи [Обновить пиров]
Размер:  466 MB   |    Зарегистрирован:  8 месяцев 17 дней   |    Скачан:  1 раз

Полного источника не было: 3 месяца 24 дня

 
   
 
 
 

[Цитировать]

Johann Sebastian Bach
The Brandenburg Concertos Nos. 1–6

Жанр: classical
Страна-производитель диска: UK
Год издания диска: 1992
Издатель: classics for pleasure
Номер по каталогу: ?
Дата записи: 22–27 января 1992
Аудиокодек: FLAC
Тип рипа: tracks+.cue
Битрейт аудио: lossless
Продолжительность: 01:32:46
Источник: скачано с what.cd
Буклет в содержимом раздачи отсутствует
Исполнители: Hanover Band, Anthony Halstead

CD 1

Brandenburg Concerto No. 1 in F Major, BWV 1046
01. [...] (3:55)
02. Adagio (3:14)
03. Allegro (3:50)
04. Menuet – Trio I – Menuet da capo – Polacca – Menuet da capo – Trio II – Menuet da capo (7:24)
Brandenburg Concerto No. 3 in G Major, BWV 1048
05. [...] (5:08)
06. Adagio (0:17)
07. Allegro (4:55)
Brandenburg Concerto No. 4 in G major, BWV 1049
08. Allegro (6:54)
09. Andante (3:26)
10. Presto (4:44)

Лог создания рипа

Exact Audio Copy V1.0 beta 3 from 29. August 2011
EAC extraction logfile from 14. November 2014, 21:00
Hanover Band; Anthony Halstead / JS Bach Brandenburg Concertos (cd1) (1992)
Used drive : Optiarc BD ROM BC-5550H Adapter: 0 ID: 2
Read mode : Secure
Utilize accurate stream : Yes
Defeat audio cache : Yes
Make use of C2 pointers : No
Read offset correction : 48
Overread into Lead-In and Lead-Out : No
Fill up missing offset samples with silence : Yes
Delete leading and trailing silent blocks : No
Null samples used in CRC calculations : Yes
Used interface : Native Win32 interface for Win NT & 2000
Gap handling : Appended to previous track
Used output format : User Defined Encoder
Selected bitrate : 768 kBit/s
Quality : High
Add ID3 tag : No
Command line compressor : E:\Program Files (x86)\Exact Audio Copy\FLAC\FLAC.EXE
Additional command line options : -6 -V -T "ARTIST=%artist%" -T "TITLE=%title%" -T "ALBUM=%albumtitle%" -T "DATE=%year%" -T "TRACKNUMBER=%tracknr%" -T "GENRE=%genre%" -T "COMMENT=%comment%" -T "BAND=%albuminterpret%" -T "ALBUMARTIST=%albuminterpret%" -T "COMPOSER=%composer%" %haslyrics%--tag-from-file=LYRICS="%lyricsfile%"%haslyrics% -T "DISCNUMBER=%cdnumber%" -T "TOTALDISCS=%totalcds%" -T "TOTALTRACKS=%numtracks%" %hascover%--picture="%coverfile%"%hascover% %source% -o %dest%
TOC of the extracted CD
Track | Start | Length | Start sector | End sector
---------------------------------------------------------
1 | 0:00.00 | 3:54.68 | 0 | 17617
2 | 3:54.68 | 3:14.09 | 17618 | 32176
3 | 7:09.02 | 3:50.05 | 32177 | 49431
4 | 10:59.07 | 7:23.44 | 49432 | 82700
5 | 18:22.51 | 5:08.09 | 82701 | 105809
6 | 23:30.60 | 0:17.15 | 105810 | 107099
7 | 23:48.00 | 4:55.09 | 107100 | 129233
8 | 28:43.09 | 6:53.55 | 129234 | 160263
9 | 35:36.64 | 3:26.15 | 160264 | 175728
10 | 39:03.04 | 4:44.36 | 175729 | 197064
Track 1
Filename E:\Upload\JS Bach Brandenburg Concertos (1992)\JS Bach Brandenburg Concertos (1992)\CD1\01 BWV 1046 Brandenburg Concerto No. 1 in F I Allegro.wav
Pre-gap length 0:00:02.00
Peak level 77.2 %
Extraction speed 4.4 X
Track quality 100.0 %
Test CRC A1963396
Copy CRC A1963396
Accurately ripped (confidence 3) [6FB1C59E] (AR v1)
Copy OK
Track 2
Filename E:\Upload\JS Bach Brandenburg Concertos (1992)\JS Bach Brandenburg Concertos (1992)\CD1\02 II Adagio.wav
Peak level 44.1 %
Extraction speed 4.8 X
Track quality 100.0 %
Test CRC 73645215
Copy CRC 73645215
Accurately ripped (confidence 3) [E967E415] (AR v1)
Copy OK
Track 3
Filename E:\Upload\JS Bach Brandenburg Concertos (1992)\JS Bach Brandenburg Concertos (1992)\CD1\03 III Allegro.wav
Peak level 77.6 %
Extraction speed 5.2 X
Track quality 99.9 %
Test CRC 5400A844
Copy CRC 5400A844
Accurately ripped (confidence 3) [4441E534] (AR v1)
Copy OK
Track 4
Filename E:\Upload\JS Bach Brandenburg Concertos (1992)\JS Bach Brandenburg Concertos (1992)\CD1\04 IV Menuet - Trio I - Menuet - Polonaise - Menuet - Trio II - Menuet.wav
Peak level 66.7 %
Extraction speed 6.0 X
Track quality 100.0 %
Test CRC 613265E2
Copy CRC 613265E2
Accurately ripped (confidence 3) [27A3076C] (AR v1)
Copy OK
Track 5
Filename E:\Upload\JS Bach Brandenburg Concertos (1992)\JS Bach Brandenburg Concertos (1992)\CD1\05 BWV 1048 Brandenburg Concerto No. 3 in G I Allegro.wav
Peak level 75.9 %
Extraction speed 6.5 X
Track quality 100.0 %
Test CRC A1A2584F
Copy CRC A1A2584F
Accurately ripped (confidence 3) [13520AE7] (AR v1)
Copy OK
Track 6
Filename E:\Upload\JS Bach Brandenburg Concertos (1992)\JS Bach Brandenburg Concertos (1992)\CD1\06 II Adagio.wav
Peak level 25.1 %
Extraction speed 4.2 X
Track quality 100.0 %
Test CRC FF40E32B
Copy CRC FF40E32B
Accurately ripped (confidence 3) [2B1D0646] (AR v1)
Copy OK
Track 7
Filename E:\Upload\JS Bach Brandenburg Concertos (1992)\JS Bach Brandenburg Concertos (1992)\CD1\07 III Allegro.wav
Peak level 52.8 %
Extraction speed 6.8 X
Track quality 99.9 %
Test CRC 336C6510
Copy CRC 336C6510
Accurately ripped (confidence 3) [0AC9ECBC] (AR v1)
Copy OK
Track 8
Filename E:\Upload\JS Bach Brandenburg Concertos (1992)\JS Bach Brandenburg Concertos (1992)\CD1\08 BWV 1049 Brandenburg Concerto No. 4 in G I Allegro.wav
Peak level 60.7 %
Extraction speed 7.5 X
Track quality 100.0 %
Test CRC 0CF46D07
Copy CRC 0CF46D07
Accurately ripped (confidence 3) [31CEEEE0] (AR v1)
Copy OK
Track 9
Filename E:\Upload\JS Bach Brandenburg Concertos (1992)\JS Bach Brandenburg Concertos (1992)\CD1\09 II Andante.wav
Peak level 42.8 %
Extraction speed 7.5 X
Track quality 99.9 %
Test CRC 8C24E4D6
Copy CRC 8C24E4D6
Accurately ripped (confidence 3) [DA6EBBAB] (AR v1)
Copy OK
Track 10
Filename E:\Upload\JS Bach Brandenburg Concertos (1992)\JS Bach Brandenburg Concertos (1992)\CD1\10 III Presto.wav
Peak level 71.8 %
Extraction speed 8.2 X
Track quality 100.0 %
Test CRC 74770DF6
Copy CRC 74770DF6
Accurately ripped (confidence 3) [92B7197D] (AR v1)
Copy OK
All tracks accurately ripped
No errors occurred
End of status report
---- CUETools DB Plugin V2.1.3
[CTDB TOCID: SBAnExkMZybpMKr_ZX148AfnPik-] found, Submit result: SBAnExkMZybpMKr_ZX148AfnPik- has been uploaded
[b838fba0] (1/4) Differs in 11630 samples @17:20:73-17:20:74,17:21:11-17:21:12,17:21:24-17:21:25,17:21:36-17:21:38,17:21:49-17:21:50,17:21:62-17:21:63,17:22:00-17:22:01,17:22:12-17:22:14,17:22:25-17:22:27,17:22:38-17:22:39,17:22:51-17:22:52,17:22:63-17:22:65,17:23:01-17:23:03,17:23:14-17:23:15,17:23:27-17:23:28,17:23:39-17:23:41,17:23:52-17:23:54,17:23:65-17:23:66,17:24:03-17:24:04,17:24:16-17:24:17,17:24:29,17:24:41-17:24:42,17:24:54-17:24:55,17:24:67-17:24:68,17:25:17,17:25:30-17:25:31
[ff0c6eb8] (1/4) Differs in 8750 samples @17:21:11-17:21:12,17:21:24-17:21:25,17:21:36-17:21:38,17:21:49-17:21:50,17:21:62-17:21:63,17:22:00-17:22:01,17:22:12-17:22:14,17:22:25-17:22:26,17:22:38-17:22:39,17:22:51-17:22:52,17:22:63-17:22:65,17:23:01-17:23:03,17:23:14-17:23:15,17:23:27-17:23:28,17:23:39-17:23:41,17:23:52-17:23:54,17:23:65-17:23:66,17:24:03-17:24:04,17:24:16,17:24:29,17:24:42,17:24:54-17:24:55,17:25:30-17:25:31
[7d9bad1f] (1/4) Differs in 10029 samples @17:21:11-17:21:12,17:21:24-17:21:25,17:21:36-17:21:38,17:21:49-17:21:50,17:21:62-17:21:63,17:22:00-17:22:01,17:22:12-17:22:14,17:22:25-17:22:26,17:22:38-17:22:39,17:22:51-17:22:52,17:22:63-17:22:65,17:23:01-17:23:03,17:23:14-17:23:15,17:23:27-17:23:28,17:23:39-17:23:41,17:23:52-17:23:54,17:23:65-17:23:66,17:24:03-17:24:04,17:24:16-17:24:17,17:24:29,17:24:41-17:24:42,17:24:54-17:24:55,17:25:17
[f79867d0] (1/4) Differs in 11551 samples @17:21:37,17:21:49-17:21:50,17:21:62-17:21:63,17:22:00-17:22:01,17:22:12-17:22:14,17:22:25-17:22:27,17:22:38-17:22:39,17:22:51-17:22:52,17:22:64-17:22:65,17:23:01-17:23:03,17:23:14-17:23:15,17:23:27-17:23:28,17:23:40-17:23:41,17:23:52-17:23:54,17:23:65-17:23:66,17:24:03-17:24:04,17:24:16-17:24:17,17:24:29-17:24:30,17:24:41-17:24:42,17:24:54-17:24:55,17:24:67-17:24:68,17:25:05-17:25:06,17:25:17-17:25:18,17:25:30-17:25:31
You can use CUETools to repair this rip.
==== Log checksum 8EC914E0EA0695932892BB43F180B6960FAE577F7D41F67ACEEFEEBFFB2F1B52 ====

Содержание индексной карты (.CUE)

REM DATE 1992
REM DISCID 630A430A
REM COMMENT "ExactAudioCopy v1.0b3"
CATALOG 0724358604429
PERFORMER "Hanover Band, Anthony Halstead"
TITLE "Brandenburg Concertos Nos. 1, 3, 4"
FILE "01. No. 1 in F Major, BWV 1046 · [...].wav" WAVE
TRACK 01 AUDIO
TITLE "[...]"
PERFORMER "Hanover Band, Anthony Halstead"
ISRC GBAYD9100668
INDEX 01 00:00:00
FILE "02. No. 1 in F Major, BWV 1046 · Adagio.wav" WAVE
TRACK 02 AUDIO
TITLE "Adagio"
PERFORMER "Hanover Band, Anthony Halstead"
INDEX 01 00:00:00
FILE "03. No. 1 in F Major, BWV 1046 · Allegro.wav" WAVE
TRACK 03 AUDIO
TITLE "Allegro"
PERFORMER "Hanover Band, Anthony Halstead"
INDEX 01 00:00:00
FILE "04. No. 1 in F Major, BWV 1046 · Menuet....wav" WAVE
TRACK 04 AUDIO
TITLE "Menuet – Trio I – Menuet da capo – Polacca – Menuet da capo – Trio II – Menuet da capo"
PERFORMER "Hanover Band, Anthony Halstead"
INDEX 01 00:00:00
FILE "05. No. 3 in G Major, BWV 1048 · [...].wav" WAVE
TRACK 05 AUDIO
TITLE "[...]"
PERFORMER "Hanover Band, Anthony Halstead"
INDEX 01 00:00:00
FILE "06. No. 3 in G Major, BWV 1048 · Adagio.wav" WAVE
TRACK 06 AUDIO
TITLE "Adagio"
PERFORMER "Hanover Band, Anthony Halstead"
INDEX 01 00:00:00
FILE "07. No. 3 in G Major, BWV 1048 · Allegro.wav" WAVE
TRACK 07 AUDIO
TITLE "Allegro"
PERFORMER "Hanover Band, Anthony Halstead"
INDEX 01 00:00:00
FILE "08. No. 4 in G major, BWV 1049 · Allegro.wav" WAVE
TRACK 08 AUDIO
TITLE "Allegro"
PERFORMER "Hanover Band, Anthony Halstead"
INDEX 01 00:00:00
FILE "09. No. 4 in G major, BWV 1049 · Andante.wav" WAVE
TRACK 09 AUDIO
TITLE "Andante"
PERFORMER "Hanover Band, Anthony Halstead"
INDEX 01 00:00:00
FILE "10. No. 4 in G major, BWV 1049 · Presto.wav" WAVE
TRACK 10 AUDIO
TITLE "Presto"
PERFORMER "Hanover Band, Anthony Halstead"
INDEX 01 00:00:00

CD 2

Brandenburg Concerto No. 5 in D Major, BWV 1050
01. Allegro (9:45)
02. Affettuoso (5:33)
03. Allegro (5:22)
Brandenburg Concerto No. 2 in F Major, BWV 1047
04. [...] (4:52)
05. Andante (3:38)
06. Allegro assai (2:53)
Brandenburg Concerto No. 6 in B-Flat Major, BWV 1051
07. [...] (6:08)
08. Adagio ma non-tanto (4:51)
09. Allegro (5:58)

Лог создания рипа

Exact Audio Copy V1.0 beta 3 from 29. August 2011
EAC extraction logfile from 14. November 2014, 21:22
Hanover Band - Anthony Halstead / JS Bach Brandenburg Concertos (1992) CD2
Used drive : Optiarc BD ROM BC-5550H Adapter: 0 ID: 2
Read mode : Secure
Utilize accurate stream : Yes
Defeat audio cache : Yes
Make use of C2 pointers : No
Read offset correction : 48
Overread into Lead-In and Lead-Out : No
Fill up missing offset samples with silence : Yes
Delete leading and trailing silent blocks : No
Null samples used in CRC calculations : Yes
Used interface : Native Win32 interface for Win NT & 2000
Gap handling : Appended to previous track
Used output format : User Defined Encoder
Selected bitrate : 768 kBit/s
Quality : High
Add ID3 tag : No
Command line compressor : E:\Program Files (x86)\Exact Audio Copy\FLAC\FLAC.EXE
Additional command line options : -6 -V -T "ARTIST=%artist%" -T "TITLE=%title%" -T "ALBUM=%albumtitle%" -T "DATE=%year%" -T "TRACKNUMBER=%tracknr%" -T "GENRE=%genre%" -T "COMMENT=%comment%" -T "BAND=%albuminterpret%" -T "ALBUMARTIST=%albuminterpret%" -T "COMPOSER=%composer%" %haslyrics%--tag-from-file=LYRICS="%lyricsfile%"%haslyrics% -T "DISCNUMBER=%cdnumber%" -T "TOTALDISCS=%totalcds%" -T "TOTALTRACKS=%numtracks%" %hascover%--picture="%coverfile%"%hascover% %source% -o %dest%
TOC of the extracted CD
Track | Start | Length | Start sector | End sector
---------------------------------------------------------
1 | 0:00.00 | 9:44.62 | 0 | 43861
2 | 9:44.62 | 5:32.48 | 43862 | 68809
3 | 15:17.35 | 5:21.38 | 68810 | 92922
4 | 20:38.73 | 4:52.12 | 92923 | 114834
5 | 25:31.10 | 3:37.42 | 114835 | 131151
6 | 29:08.52 | 2:52.62 | 131152 | 144113
7 | 32:01.39 | 6:08.09 | 144114 | 171722
8 | 38:09.48 | 4:50.57 | 171723 | 193529
9 | 43:00.30 | 5:57.64 | 193530 | 220368
Track 1
Filename E:\Upload\JS Bach Brandenburg Concertos (1992)\JS Bach Brandenburg Concertos (1992)\CD2\11 Concerto No.5 in D Major 1 Allegro.wav
Pre-gap length 0:00:02.00
Peak level 76.4 %
Extraction speed 4.8 X
Track quality 100.0 %
Test CRC 1820E399
Copy CRC 1820E399
Accurately ripped (confidence 2) [63737EAE] (AR v1)
Copy OK
Track 2
Filename E:\Upload\JS Bach Brandenburg Concertos (1992)\JS Bach Brandenburg Concertos (1992)\CD2\12 Concerto No.5 in D Major 2 Affettuoso.wav
Peak level 35.7 %
Extraction speed 5.6 X
Track quality 99.9 %
Test CRC 362EBE4B
Copy CRC 362EBE4B
Accurately ripped (confidence 2) [8DBBB854] (AR v1)
Copy OK
Track 3
Filename E:\Upload\JS Bach Brandenburg Concertos (1992)\JS Bach Brandenburg Concertos (1992)\CD2\13 Concerto No.5 in D Major 3 Allegro.wav
Peak level 60.1 %
Extraction speed 6.2 X
Track quality 100.0 %
Test CRC 442EBE26
Copy CRC 442EBE26
Accurately ripped (confidence 2) [7C1D53A3] (AR v1)
Copy OK
Track 4
Filename E:\Upload\JS Bach Brandenburg Concertos (1992)\JS Bach Brandenburg Concertos (1992)\CD2\14 Concerto No.2 in F Major 1 Allegro.wav
Peak level 70.7 %
Extraction speed 6.6 X
Track quality 99.9 %
Test CRC 5F97C004
Copy CRC 5F97C004
Accurately ripped (confidence 2) [CD8FC7CE] (AR v1)
Copy OK
Track 5
Filename E:\Upload\JS Bach Brandenburg Concertos (1992)\JS Bach Brandenburg Concertos (1992)\CD2\15 Concerto No.2 in F Major 2 Andante.wav
Peak level 41.3 %
Extraction speed 6.9 X
Track quality 100.0 %
Test CRC 5DF1BFF7
Copy CRC 5DF1BFF7
Accurately ripped (confidence 2) [321F1F36] (AR v1)
Copy OK
Track 6
Filename E:\Upload\JS Bach Brandenburg Concertos (1992)\JS Bach Brandenburg Concertos (1992)\CD2\16 Concerto No.2 in F Major 3 Allegro assai.wav
Peak level 78.9 %
Extraction speed 7.1 X
Track quality 100.0 %
Test CRC 26E7C29D
Copy CRC 26E7C29D
Accurately ripped (confidence 2) [23831105] (AR v1)
Copy OK
Track 7
Filename E:\Upload\JS Bach Brandenburg Concertos (1992)\JS Bach Brandenburg Concertos (1992)\CD2\17 Concerto No.6 in D Major 1 Allegro.wav
Peak level 47.9 %
Extraction speed 7.7 X
Track quality 100.0 %
Test CRC 4074F597
Copy CRC 4074F597
Accurately ripped (confidence 2) [9FC2D10A] (AR v1)
Copy OK
Track 8
Filename E:\Upload\JS Bach Brandenburg Concertos (1992)\JS Bach Brandenburg Concertos (1992)\CD2\18 Concerto No.6 in D Major 2 Adagio ma non tanto.wav
Peak level 38.9 %
Extraction speed 8.0 X
Track quality 100.0 %
Test CRC BB3003C4
Copy CRC BB3003C4
Accurately ripped (confidence 2) [96CB55F3] (AR v1)
Copy OK
Track 9
Filename E:\Upload\JS Bach Brandenburg Concertos (1992)\JS Bach Brandenburg Concertos (1992)\CD2\19 Concerto No.6 in D Major 3 Allegro.wav
Peak level 58.2 %
Extraction speed 8.6 X
Track quality 100.0 %
Test CRC F1B1130F
Copy CRC F1B1130F
Accurately ripped (confidence 2) [E4344702] (AR v1)
Copy OK
All tracks accurately ripped
No errors occurred
End of status report
---- CUETools DB Plugin V2.1.3
[CTDB TOCID: PoNqenKMLgQwvkqo6TX5zzptGyQ-] found, Submit result: PoNqenKMLgQwvkqo6TX5zzptGyQ- has been confirmed
[3c9475a7] (1/1) Accurately ripped
==== Log checksum B5059D2009DA7AE1367BD0ECBE28F726B1A94BACA96BBF21C086DDA433EDA803 ====

Содержание индексной карты (.CUE)

REM DATE 1992
REM DISCID 760B7A09
REM COMMENT "ExactAudioCopy v1.0b3"
CATALOG 0724358604528
PERFORMER "Hanover Band, Anthony Halstead"
TITLE "Brandenburg Concertos Nos. 5, 2, 6"
FILE "01. No. 5 in D Major, BWV 1050 · Allegro.wav" WAVE
TRACK 01 AUDIO
TITLE "Allegro"
PERFORMER "Hanover Band, Anthony Halstead"
ISRC GBAYD9200438
INDEX 01 00:00:00
FILE "02. No. 5 in D Major, BWV 1050 · Affettuoso.wav" WAVE
TRACK 02 AUDIO
TITLE "Affettuoso"
PERFORMER "Hanover Band, Anthony Halstead"
INDEX 01 00:00:00
FILE "03. No. 5 in D Major, BWV 1050 · Allegro.wav" WAVE
TRACK 03 AUDIO
TITLE "Allegro"
PERFORMER "Hanover Band, Anthony Halstead"
INDEX 01 00:00:00
FILE "04. No. 2 in F Major, BWV 1047 · [...].wav" WAVE
TRACK 04 AUDIO
TITLE "[...]"
PERFORMER "Hanover Band, Anthony Halstead"
INDEX 01 00:00:00
FILE "05. No. 2 in F Major, BWV 1047 · Andante.wav" WAVE
TRACK 05 AUDIO
TITLE "Andante"
PERFORMER "Hanover Band, Anthony Halstead"
INDEX 01 00:00:00
FILE "06. No. 2 in F Major, BWV 1047 · Allegro assai.wav" WAVE
TRACK 06 AUDIO
TITLE "Allegro assai"
PERFORMER "Hanover Band, Anthony Halstead"
INDEX 01 00:00:00
FILE "07. No. 6 in B-Flat Major, BWV 1051 · [...].wav" WAVE
TRACK 07 AUDIO
TITLE "[...]"
PERFORMER "Hanover Band, Anthony Halstead"
INDEX 01 00:00:00
FILE "08. No. 6 in B-Flat Major, BWV 1051 · Adagio ma non-tanto.wav" WAVE
TRACK 08 AUDIO
TITLE "Adagio ma non-tanto"
PERFORMER "Hanover Band, Anthony Halstead"
INDEX 01 00:00:00
FILE "09. No. 6 in B-Flat Major, BWV 1051 · Allegro.wav" WAVE
TRACK 09 AUDIO
TITLE "Allegro"
PERFORMER "Hanover Band, Anthony Halstead"
INDEX 01 00:00:00
[teatrix.ru].t22785.torrent 
Торрент: Зарегистрирован [ 2016-03-21 00:45 ] · 40A5FD421B8A526CB01C6100EBFF27711C3757BE

Скачать .torrent

Скачать

21 KB

Статус: проверено
Скачан: 1 раз
Размер: 466 MB
terms.php



Быстрый ответ

Имя:

      
Для отправки сообщений необходимо включить JavaScript
Показать сообщения:    

Текущее время: 07-Дек 00:52

Часовой пояс: UTC + 3


Вы можете начинать темы
Вы можете отвечать на сообщения
Вы не можете редактировать свои сообщения
Вы не можете удалять свои сообщения
Вы не можете голосовать в опросах
Вы не можете прикреплять файлы к сообщениям
Вы можете скачивать файлы