(Choral) J.S.Bach - Kantaten: »Liebster Jesu, mein Verlangen«, BWV 32 | »Die Himmel erzahlen die Ehre Gottes«, BWV 76 (M.Laszlo • H.Rossl-Majdan • A.Poell • P.Munteanu • R.Standen • H.Scherchen) - 2004, FLAC (image+.cue) lossless


Статистика раздачи [Обновить пиров]
Размер:  163 MB   |    Зарегистрирован:  8 месяцев 13 дней   |    Скачан:  0 раз

Полного источника не было: Никогда

 
   
 
 
 

[Цитировать]

Johann Sebastian Bach - Kantaten:
»Liebster Jesu, mein Verlangen«, BWV 32
»Die Himmel erzählen die Ehre Gottes«, BWV 76
Wiener Staatsopernorchester - Hermann Scherchen
----- Жанр: Choral
Страна-производитель диска: EU
Год издания диска: 2004
Издатель (лейбл): Archipel
Дата записи: 1951/52
Аудиокодек: FLAC
Тип рипа: image+.cue
Битрейт аудио: lossless
Продолжительность: 67'13''
Источник: собственный рип
Наличие сканов в содержимом раздачи: да
Треклист:
»Liebster Jesu, mein Verlangen«, BWV 32:
[01] LiebsterJesu, mein Verlangen
[02] Was ist's, dass du mich gesuchet?
[03] Hier, in meines Vaters Stätte
[04] Ach, heiliger und grosser Gott
[05] Nun verschwinden alle Plagen
[06] Mein Gott, öffne mir die Pforten
»Die Himmel erzählen die ehre Gottes«, BWV 76:
[07] Die Himmel erzählen die Ehre Gottes
[08] So lässt sich Gott nicht unbezeugt
[09] Hört, ihr Völker, Gottes Stimme
[10] Wer aber hört, da sich der grosse Haufen
[11] Fahr' hin, abgöttische Zunft!
[12] Du hast uns, Herr, von allen Strassen zu dir geruft
[13] Es woll' uns Gott genädig sein
[14] Sinfonia
[15] Gott segne noch die treue Schar
[16] Hasse nur, hasse mich recht
[17] Ich fühle schon im Geist
[18] Liebt, ihr Christen, in der Tat
[19] So soll die Christenheit die Liebe Gottes preisen
[20] Es danke, Gott, und lobe dich
Исполнители:
Magda László - soprano
Hilde Rössl-Majdan - contralto
Petre Munteanu - tenor
Alfred Poell, Richard Standen - bass
Academy Choir
Wiener Staatsopernorchester
Hermann Scherchen
-

Лог создания рипа

Exact Audio Copy V1.0 beta 3 from 29. August 2011
EAC extraction logfile from 10. November 2013, 4:01
Hermann Scherchen / J.S.Bach - Kantaten 32 und 76
Used drive : PHILIPS CDRW1610A Adapter: 0 ID: 0
Read mode : Secure
Utilize accurate stream : Yes
Defeat audio cache : Yes
Make use of C2 pointers : No
Read offset correction : 733
Overread into Lead-In and Lead-Out : No
Fill up missing offset samples with silence : Yes
Delete leading and trailing silent blocks : No
Null samples used in CRC calculations : Yes
Used interface : Native Win32 interface for Win NT & 2000
Used output format : User Defined Encoder
Selected bitrate : 896 kBit/s
Quality : High
Add ID3 tag : No
Command line compressor : C:\Program Files\FLAC\flac.exe
Additional command line options : -T "COMMENT=rip by el coronel" -8 -V %source%
TOC of the extracted CD
Track | Start | Length | Start sector | End sector
---------------------------------------------------------
1 | 0:00.00 | 5:28.33 | 0 | 24632
2 | 5:28.33 | 0:39.44 | 24633 | 27601
3 | 6:08.02 | 7:27.22 | 27602 | 61148
4 | 13:35.24 | 3:19.72 | 61149 | 76145
5 | 16:55.21 | 5:22.21 | 76146 | 100316
6 | 22:17.42 | 2:11.19 | 100317 | 110160
7 | 24:28.61 | 5:11.69 | 110161 | 133554
8 | 29:40.55 | 2:17.66 | 133555 | 143895
9 | 31:58.46 | 4:29.11 | 143896 | 164081
10 | 36:27.57 | 0:55.01 | 164082 | 168207
11 | 37:22.58 | 3:20.64 | 168208 | 183271
12 | 40:43.47 | 2:32.12 | 183272 | 194683
13 | 43:15.59 | 3:54.04 | 194684 | 212237
14 | 47:09.63 | 3:01.31 | 212238 | 225843
15 | 50:11.19 | 1:16.30 | 225844 | 231573
16 | 51:27.49 | 4:28.45 | 231574 | 251718
17 | 55:56.19 | 1:52.55 | 251719 | 260173
18 | 57:48.74 | 4:47.53 | 260174 | 281751
19 | 62:36.52 | 1:23.60 | 281752 | 288036
20 | 64:00.37 | 3:12.36 | 288037 | 302472
Range status and errors
Selected range
Filename D:\Musiс\J.S.Bach - Kantaten 32 und 76 (Scherchen).wav
Peak level 77.9 %
Extraction speed 8.6 X
Range quality 100.0 %
Test CRC 4AE99038
Copy CRC 4AE99038
Copy OK
No errors occurred
AccurateRip summary
Track 1 accurately ripped (confidence 2) [6F5CCC6A] (AR v2)
Track 2 accurately ripped (confidence 2) [A3BD54D6] (AR v2)
Track 3 accurately ripped (confidence 2) [7FE8A16E] (AR v2)
Track 4 accurately ripped (confidence 2) [C3EC66F4] (AR v2)
Track 5 accurately ripped (confidence 2) [27C48CF7] (AR v2)
Track 6 accurately ripped (confidence 2) [AA0ED2B4] (AR v2)
Track 7 accurately ripped (confidence 2) [B1E39298] (AR v2)
Track 8 accurately ripped (confidence 2) [F3148DCF] (AR v2)
Track 9 accurately ripped (confidence 2) [2FF78539] (AR v2)
Track 10 accurately ripped (confidence 2) [71B4F149] (AR v2)
Track 11 accurately ripped (confidence 2) [73B2D293] (AR v2)
Track 12 accurately ripped (confidence 2) [02C2D094] (AR v2)
Track 13 accurately ripped (confidence 2) [73149C0F] (AR v2)
Track 14 accurately ripped (confidence 2) [C215AB19] (AR v2)
Track 15 accurately ripped (confidence 2) [46178F5A] (AR v2)
Track 16 accurately ripped (confidence 2) [26F2AAA8] (AR v2)
Track 17 accurately ripped (confidence 2) [196A2ABE] (AR v2)
Track 18 accurately ripped (confidence 2) [1AC932F6] (AR v2)
Track 19 accurately ripped (confidence 2) [A76B7214] (AR v2)
Track 20 accurately ripped (confidence 2) [8FB9C20B] (AR v2)
All tracks accurately ripped
End of status report
==== Log checksum 4DDAA5D371DFAA094C2BE889A904DD2E18E2A66578324DA3FC098143A6B5FD29 ====

Содержание индексной карты (.CUE)

REM GENRE Chorus
REM DATE 2005
REM DISCID 1E0FC014
REM COMMENT ExactAudioCopy v1.0b3
PERFORMER "Hermann Scherchen"
TITLE "J.S.Bach - Kantaten 32 und 76"
FILE "J.S.Bach - Kantaten 32 und 76 (Scherchen).flac" WAVE
TRACK 01 AUDIO
TITLE "»Liebster Jesu, mein Verlangen«, BWV 32: Liebster Jesu, mein Verlangen"
PERFORMER "Hermann Scherchen, Vienna State Opera Orchestra"
FLAGS DCP
INDEX 01 00:00:00
TRACK 02 AUDIO
TITLE "Was ist's, dass du mich gesuchet?"
PERFORMER "Hermann Scherchen, Vienna State Opera Orchestra"
FLAGS DCP
INDEX 01 05:28:33
TRACK 03 AUDIO
TITLE "Hier, in meines Vaters Staette"
PERFORMER "Hermann Scherchen, Vienna State Opera Orchestra"
FLAGS DCP
INDEX 01 06:08:02
TRACK 04 AUDIO
TITLE "Ach, heiliger und grosser Gott"
PERFORMER "Hermann Scherchen, Vienna State Opera Orchestra"
FLAGS DCP
INDEX 01 13:35:24
TRACK 05 AUDIO
TITLE "Nun verschwinden alle Plagen"
PERFORMER "Hermann Scherchen, Vienna State Opera Orchestra"
FLAGS DCP
INDEX 01 16:55:21
TRACK 06 AUDIO
TITLE "Mein Gott, oeffne mir die Pforten"
PERFORMER "Hermann Scherchen, Vienna State Opera Orchestra"
FLAGS DCP
INDEX 01 22:17:42
TRACK 07 AUDIO
TITLE "»Die Himmel erzahlen die ehre Gottes«, BWV 76: Die Himmel erzaehlen die Ehre Gottes"
PERFORMER "Hermann Scherchen, Vienna State Opera Orchestra"
FLAGS DCP
INDEX 00 24:24:61
INDEX 01 24:28:61
TRACK 08 AUDIO
TITLE "So lasst sich Gott nicht unbezeugt"
PERFORMER "Hermann Scherchen, Vienna State Opera Orchestra"
FLAGS DCP
INDEX 01 29:40:55
TRACK 09 AUDIO
TITLE "Hort, ihr Voelker, Gottes Stimme"
PERFORMER "Hermann Scherchen, Vienna State Opera Orchestra"
FLAGS DCP
INDEX 01 31:58:46
TRACK 10 AUDIO
TITLE "Wer aber hoert, da sich der grosse Haufen"
PERFORMER "Hermann Scherchen, Vienna State Opera Orchestra"
FLAGS DCP
INDEX 01 36:27:57
TRACK 11 AUDIO
TITLE "Fahr' hin, abgoettische Zunft!"
PERFORMER "Hermann Scherchen, Vienna State Opera Orchestra"
FLAGS DCP
INDEX 01 37:22:58
TRACK 12 AUDIO
TITLE "Du hast uns, Herr, von allen Strassen zu dir geruft"
PERFORMER "Hermann Scherchen, Vienna State Opera Orchestra"
FLAGS DCP
INDEX 01 40:43:47
TRACK 13 AUDIO
TITLE "Es woll' uns Gott genaedig sein"
PERFORMER "Hermann Scherchen, Vienna State Opera Orchestra"
FLAGS DCP
INDEX 01 43:15:59
TRACK 14 AUDIO
TITLE "Sinfonia"
PERFORMER "Hermann Scherchen, Vienna State Opera Orchestra"
FLAGS DCP
INDEX 01 47:09:63
TRACK 15 AUDIO
TITLE "Gott segne noch die treue Schar"
PERFORMER "Hermann Scherchen, Vienna State Opera Orchestra"
FLAGS DCP
INDEX 01 50:11:19
TRACK 16 AUDIO
TITLE "Hasse nur, hasse mich recht"
PERFORMER "Hermann Scherchen, Vienna State Opera Orchestra"
FLAGS DCP
INDEX 01 51:27:49
TRACK 17 AUDIO
TITLE "Ich fuehle schon im Geist"
PERFORMER "Hermann Scherchen, Vienna State Opera Orchestra"
FLAGS DCP
INDEX 01 55:56:19
TRACK 18 AUDIO
TITLE "Liebt, ihr Christen, in der Tat"
PERFORMER "Hermann Scherchen, Vienna State Opera Orchestra"
FLAGS DCP
INDEX 01 57:48:74
TRACK 19 AUDIO
TITLE "So soll die Christenheit die Liebe Gottes preisen"
PERFORMER "Hermann Scherchen, Vienna State Opera Orchestra"
FLAGS DCP
INDEX 01 62:36:52
TRACK 20 AUDIO
TITLE "Es danke, Gott, und lobe dich"
PERFORMER "Hermann Scherchen, Vienna State Opera Orchestra"
FLAGS DCP
INDEX 01 64:00:37
-
[teatrix.ru].t22787.torrent 
Торрент: Зарегистрирован [ 2016-03-21 00:01 ] · 1DA5BD041E168E3FBF907B1AB36556B1D9A25EC4

Скачать .torrent

Скачать

14 KB

Статус: проверено
Скачан: 0 раз
Размер: 163 MB
terms.php



Быстрый ответ

Имя:

      
Для отправки сообщений необходимо включить JavaScript
Показать сообщения:    

Текущее время: 03-Дек 16:46

Часовой пояс: UTC + 3


Вы можете начинать темы
Вы можете отвечать на сообщения
Вы не можете редактировать свои сообщения
Вы не можете удалять свои сообщения
Вы не можете голосовать в опросах
Вы не можете прикреплять файлы к сообщениям
Вы можете скачивать файлы