(Choral) J.S.Bach - Trauerode: »Lass, Furstin, lass noch einen Strahl«, BWV 198 (M.Laszlo • W.Kmentt • A.Poell • H.Scherchen) | Matthaus-Passion excerpts (C.Krauss, 1944) - 2004, FLAC (image+.cue) lossless


Статистика раздачи [Обновить пиров]
Размер:  322 MB   |    Зарегистрирован:  8 месяцев 20 дней   |    Скачан:  0 раз

Полного источника не было: Никогда

 
   
 
 
 

[Цитировать]

Johann Sebastian Bach - Trauerode:
»Lass, Fürstin, lass noch einen Strahl«, BWV 198
Wiener Staatsopernorchester - Hermann Scherchen
----- Жанр: Choral
Страна-производитель диска: EU
Год издания диска: 2004
Издатель (лейбл): Archipel
Дата записи: 1951/52
Аудиокодек: FLAC
Тип рипа: image+.cue
Битрейт аудио: lossless
Продолжительность: 74'13''
Источник: собственный рип
Наличие сканов в содержимом раздачи: да
Треклист:
Trauerode »Lass, Fürstin, lass noch einen Strahl«, BWV 198:
[01] Lass, Fürstin, lass noch einen Strahl
[02] Dein Sachsen, dein bestürztes Meissen
[03] Verstummt, verstummt, ihr holden Saiten!
[04] Der Glocken bebendes Getön
[05] Wie starb die Heldin so vergnügt!
[06] Ihr Leben lie. die Kunst zu sterben
[07] An dir, du Fürbild grosser Frauen
[08] Der Ewigkeit saphirnes Haus
[09] Was Wunder ist's? Du bist es wert
[10] Doch Königin, du stirbest nicht

Bonus tracks

Matthaus Passion, BWV 244:
[11] Buss und Reu' knirscht das Sünderberz
[12] Blute nur, du liebes Herz
[13] Ich will bei meinem Jesu wachen
[14] Gebt mir meinen Jesum wieder
[15] Wenn ich einmal soll scheiden
[16] Und siehe da, der Vorhang im Tempel zerriss
[17] Wahrlich, dieser ist Gottes Sohn gewesen
[18] Wir setzen uns mit Tränen nieder
Trude Eipperele - soprano
Margarete Klose - contralto
Julius Patzak - tenor
Ludwig Weber - bass
Wiener Staatsopernchor
Wiener Philharmoniker
Clemens Krauss
Исполнители:
Magda László - soprano
Hilde Rössl-Majdan - contralto
Waldemar Kmentt - tenor
Alfred Poell - bass
Academy Choir
Wiener Staatsopernorchester
Hermann Scherchen
-

Лог создания рипа

Exact Audio Copy V1.0 beta 3 from 29. August 2011
EAC extraction logfile from 12. February 2014, 22:39
Hermann Scherchen / Bach - Trauerode BWV 198
Used drive : COMPAQ CD-ROM LTN403 Adapter: 0 ID: 0
Read mode : Secure
Utilize accurate stream : Yes
Defeat audio cache : Yes
Make use of C2 pointers : No
Read offset correction : -1164
Overread into Lead-In and Lead-Out : No
Fill up missing offset samples with silence : Yes
Delete leading and trailing silent blocks : No
Null samples used in CRC calculations : Yes
Used interface : Native Win32 interface for Win NT & 2000
Used output format : User Defined Encoder
Selected bitrate : 1024 kBit/s
Quality : High
Add ID3 tag : No
Command line compressor : C:\Program Files\FLAC\flac.exe
Additional command line options : -T"COMMENT=rip by el coronel" -8 -V %source%
TOC of the extracted CD
Track | Start | Length | Start sector | End sector
---------------------------------------------------------
1 | 0:00.00 | 9:38.46 | 0 | 43395
2 | 9:38.46 | 2:24.02 | 43396 | 54197
3 | 12:02.48 | 3:57.29 | 54198 | 72001
4 | 16:00.02 | 0:52.10 | 72002 | 75911
5 | 16:52.12 | 7:26.53 | 75912 | 109414
6 | 24:18.65 | 1:43.54 | 109415 | 117193
7 | 26:02.44 | 2:16.12 | 117194 | 127405
8 | 28:18.56 | 4:18.25 | 127406 | 146780
9 | 32:37.06 | 3:20.09 | 146781 | 161789
10 | 35:57.15 | 6:10.59 | 161790 | 189598
11 | 42:07.74 | 5:18.31 | 189599 | 213479
12 | 47:26.30 | 5:07.59 | 213480 | 236563
13 | 52:34.14 | 5:39.29 | 236564 | 262017
14 | 58:13.43 | 3:17.70 | 262018 | 276862
15 | 61:31.38 | 2:39.47 | 276863 | 288834
16 | 64:11.10 | 1:31.25 | 288835 | 295684
17 | 65:42.35 | 0:20.67 | 295685 | 297251
18 | 66:03.27 | 8:10.06 | 297252 | 334007
Range status and errors
Selected range
Filename D:\Bach - Trauerode BWV 198 (Hermann Scherchen).wav
Peak level 97.9 %
Extraction speed 3.0 X
Range quality 99.9 %
Test CRC B7438D80
Copy CRC B7438D80
Copy OK
No errors occurred
End of status report
==== Log checksum 5335D790D76A5BFB9429810F176670B16B7924CEFD392FDC844E23F52DAF47A7 ====

Содержание индексной карты (.CUE)

REM GENRE Classical
REM DATE 1951
REM DISCID 1F116512
REM COMMENT "ExactAudioCopy v1.0b3"
PERFORMER "Hermann Scherchen, Vienna State Opera Orchestra"
TITLE "J. S. Bach Trauerode BWV 198"
FILE "Bach - Trauerode BWV 198 (Hermann Scherchen).flac" WAVE
TRACK 01 AUDIO
TITLE "Trauerode, BWV 198 - Chorus: Lass, Furstin, la. noch einen Strahl"
PERFORMER "Hermann Scherchen, Vienna State Opera Orchestra"
INDEX 01 00:00:00
TRACK 02 AUDIO
TITLE "Dein Sachsen, dein besturztes Meissen"
PERFORMER "Hermann Scherchen, Vienna State Opera Orchestra"
INDEX 01 09:38:46
TRACK 03 AUDIO
TITLE "Verstummt, verstummt, ihr holden Saiten!"
PERFORMER "Hermann Scherchen, Vienna State Opera Orchestra"
INDEX 01 12:02:48
TRACK 04 AUDIO
TITLE "Der Glocken bebendes Geton"
PERFORMER "Hermann Scherchen, Vienna State Opera Orchestra"
INDEX 01 16:00:02
TRACK 05 AUDIO
TITLE "Wie starb die Heldin so vergnugt!"
PERFORMER "Hermann Scherchen, Vienna State Opera Orchestra"
INDEX 01 16:52:12
TRACK 06 AUDIO
TITLE "Ihr Leben lie. die Kunst zu sterben"
PERFORMER "Hermann Scherchen, Vienna State Opera Orchestra"
INDEX 01 24:18:65
TRACK 07 AUDIO
TITLE "An dir, du Furbild grosser Frauen"
PERFORMER "Hermann Scherchen, Vienna State Opera Orchestra"
INDEX 01 26:02:44
TRACK 08 AUDIO
TITLE "Der Ewigkeit saphirnes Haus"
PERFORMER "Hermann Scherchen, Vienna State Opera Orchestra"
INDEX 01 28:18:56
TRACK 09 AUDIO
TITLE "Was Wunder ist's? Du bist es wert"
PERFORMER "Hermann Scherchen, Vienna State Opera Orchestra"
INDEX 01 32:37:06
TRACK 10 AUDIO
TITLE "Doch Konigin, du stirbest nicht"
PERFORMER "Hermann Scherchen, Vienna State Opera Orchestra"
INDEX 01 35:57:15
TRACK 11 AUDIO
TITLE "Matthaus Passion, BWV 244 - Aria (Contralto): Buss und Reu' knirscht das Sunderberz"
PERFORMER "Clemens Krauss, Wiener Philharmoniker"
INDEX 00 42:03:74
INDEX 01 42:07:74
TRACK 12 AUDIO
TITLE "Blute nur, du liebes Herz"
PERFORMER "Clemens Krauss, Wiener Philharmoniker"
INDEX 00 47:24:30
INDEX 01 47:26:30
TRACK 13 AUDIO
TITLE "Ich will bei meinem Jesu wachen"
PERFORMER "Clemens Krauss, Wiener Philharmoniker"
INDEX 00 52:32:14
INDEX 01 52:34:14
TRACK 14 AUDIO
TITLE "Gebt mir meinen Jesum wieder"
PERFORMER "Clemens Krauss, Wiener Philharmoniker"
INDEX 00 58:11:43
INDEX 01 58:13:43
TRACK 15 AUDIO
TITLE "Wenn ich einmal soll scheiden"
PERFORMER "Clemens Krauss, Wiener Philharmoniker"
INDEX 00 61:29:38
INDEX 01 61:31:38
TRACK 16 AUDIO
TITLE "Und siehe da, der Vorhang im Tempel zerriss"
PERFORMER "Clemens Krauss, Wiener Philharmoniker"
INDEX 01 64:11:10
TRACK 17 AUDIO
TITLE "Wahrlich, dieser ist Gottes Sohn gewesen"
PERFORMER "Clemens Krauss, Wiener Philharmoniker"
INDEX 01 65:42:35
TRACK 18 AUDIO
TITLE "Wir setzen uns mit Tranen nieder"
PERFORMER "Clemens Krauss, Wiener Philharmoniker"
INDEX 00 66:01:27
INDEX 01 66:03:27
-
[teatrix.ru].t22788.torrent 
Торрент: Зарегистрирован [ 2016-03-21 00:29 ] · 28EBC855D088AAAFF17971F766D7DC8AE5D7B098

Скачать .torrent

Скачать

13 KB

Статус: проверено
Скачан: 0 раз
Размер: 322 MB
terms.php



Быстрый ответ

Имя:

      
Для отправки сообщений необходимо включить JavaScript
Показать сообщения:    

Текущее время: 10-Дек 19:42

Часовой пояс: UTC + 3


Вы можете начинать темы
Вы можете отвечать на сообщения
Вы не можете редактировать свои сообщения
Вы не можете удалять свои сообщения
Вы не можете голосовать в опросах
Вы не можете прикреплять файлы к сообщениям
Вы можете скачивать файлы