Спящая красавица / La bella durmiente (Хосе Луис Лопес-Линарес / Jose Luis Lopez-Linares) [2009, документальный, история искусств, DVB] DVO (Ред Медиа)


Статистика раздачи [Обновить пиров]
Размер:  1.07 GB   |    Зарегистрирован:  8 месяцев 21 день   |    Скачан:  0 раз

Полного источника не было: Никогда

 
   
 
 
 

[Цитировать]

Спящая красавица
La bella durmiente- Дата/Год выпуска: 2009
Страна: Испания
Жанр: документальный, история искусств
Продолжительность: 00:54:08
Перевод: Профессиональный (двухголосый закадровый)
Доп. инфо о переводе: ТПО "Ред Медиа"
Русские субтитры: нетРежиссер: Хосе Луис Лопес-Линарес / José Luis López-Linares
Телеканал: 365 дней
Описание: Фильм о выставке собраний картин прерафаэлитов "Спящая красавица. Викторианская живопись из собраний Художественного музея Понсе (Пуэрто-Рико)", прошедшей с 24 февраля по 31 мая 2009 года в Национальном музее Прадо в Мадриде.
Доп. информация: Eutelsat 36B (W7) DVB-S

качество: DVB
формат: MKV
Видео: MPEG Video 2, 720x576 (4:3), 25 fps, ~2573 kbps avg, 0.248 bit/pixel
Аудио: MPEG Audio 2, 2 ch, 48 kHz, 192 kbps

Информация по редактированию

Topfield SRP-2410 – запись спутниковой трансляции DVB-S (.rec)
ProjectX 0.91.0.10 - разбор контейнера, удаление рекламы и доп. информации
MKVToolNix GUI 8.7.0 – сборка в контейнер MKV
MkvTagger – редактирование тегов

MediaInfo

Общее
Уникальный идентификатор : 251147677080265719167171786544827660690 (0xBCF1487E2BCC2FC5910829CFAC40F992)
Полное имя : F:\My Torrents 3\[apreder]La_bella_durmiente(2009)DVB.mkv
Формат : Matroska
Версия формата : Version 2
Размер файла : 1,07 Гбайт
Продолжительность : 54 м.
Режим общего битрейта : Переменный
Общий поток : 2821 Кбит/сек
Название фильма : La bella durmiente
Дата выпуска : 2009-00-00
Дата кодирования : UTC 2016-01-05 09:50:06
Программа кодирования : mkvmerge v8.7.0 ('All of the above') 64bit
Библиотека кодирования : libebml v1.3.3 + libmatroska v1.4.4
Обложка : Yes
Attachments : cover.png / cover_small.png
DIRECTOR : José Luis López-Linares
GENRE : Documentary
KEYWORDS : rutracker.org
LAW_RATING : 12+
Видео
Идентификатор : 1
Формат : MPEG Video
Версия формата : Version 2
Профиль формата : Main@Main
Параметр BVOP формата : Да
Параметр матрицы формата : Выборочная
Параметр GOP формата : M=3, N=36
Format_Settings_PictureStructure : Frame
Идентификатор кодека : V_MPEG2
Идентификатор кодека/Информация : MPEG 1 or 2 Video
Продолжительность : 54 м.
Вид битрейта : Переменный
Битрейт : 2573 Кбит/сек
Ширина : 720 пикселей
Высота : 576 пикселей
Соотношение сторон : 4:3
Режим частоты кадров : Постоянный
Частота кадров : 25,000 кадров/сек
Стандарт вещания : PAL
Цветовое пространство : YUV
Субдискретизация насыщенности : 4:2:0
Битовая глубина : 8 бит
Тип развёртки : Чересстрочная
Порядок развёртки : Верхнее поле первое
Метод сжатия : С потерями
Бит/(Пиксели*Кадры) : 0.248
Временной код первого кадра : 00:00:00:00
Оригинал временного кода : Group of pictures header
Размер потока : 996 Мбайт (91%)
Default : Да
Forced : Нет
Аудио
Идентификатор : 2
Формат : MPEG Audio
Версия формата : Version 1
Профиль формата : Layer 2
Идентификатор кодека : A_MPEG/L2
Идентификатор кодека/Подсказка : MP2
Продолжительность : 54 м.
Вид битрейта : Постоянный
Битрейт : 192 Кбит/сек
Каналы : 2 канала
Частота : 48,0 КГц
Метод сжатия : С потерями
Размер потока : 74,4 Мбайт (7%)
Язык : Russian
Default : Да
Forced : Нет

Скриншоты

Резервные скриншоты

-
[teatrix.ru].t22789.torrent 
Торрент: Зарегистрирован [ 2016-03-21 00:45 ] · 12AA81565FC60DDB9056FCD53D2D86D8A995FD72

Скачать .torrent

Скачать

11 KB

Статус: проверено
Скачан: 0 раз
Размер: 1.07 GB
terms.php



Быстрый ответ

Имя:

      
Для отправки сообщений необходимо включить JavaScript
Показать сообщения:    

Текущее время: 11-Дек 11:07

Часовой пояс: UTC + 3


Вы можете начинать темы
Вы можете отвечать на сообщения
Вы не можете редактировать свои сообщения
Вы не можете удалять свои сообщения
Вы не можете голосовать в опросах
Вы не можете прикреплять файлы к сообщениям
Вы можете скачивать файлы