(Classical/Chamber/Renaissance) La barcha d'amore 1563-1685 (Hesperion XXI • Le Concert des Nations; Montserrat Figueras • Jordi Savall) [Alia Vox] - 2008, FLAC (tracks+.cue) lossless


 

[Цитировать]

Hespèrion XXI • Le Concert des Nations — La barcha d'amore (1563-1685)-Classical/Chamber/Renaissance • Alia Vox • 2008 • lossless • FLAC • tracks+.cue • 01:08:32 • what.cd-ITALIE
1 Giacomo de Gorzanis – La Barcha del mio amore (Gallarda), 1563 - Nouveauté
Giulio Caccini – Le Nuove Musiche, 1614
2. Amor ch’attendi
3. Alme luci beate
4. Non ha’l ciel
5. Biaggio Marini – Passacalio
Claudio Monteverdi – Lamento della Ninfa (Canto Amoroso):
6. Non havea febo ancora
7. Lamento della ninfa
8. Si tra sdegnosi pianti-ALEMAGNE
9. Samuel Scheidt – Pavana a 4 Voc.
10. Samuel Scheidt – Courant Dolorosa IX a 4 Voc.-ESPAGNE
11. Sebastián Durón – Sosieguen descansen
12. Juan del Vado – No te embarques
13. Juan Hidalgo – Ay que me rio de Amor-ANGLETERRE
14. Anonyme (ca. 1580) – Desperada
15. Anonyme (ca. 1600) – Lullaby: My little sweet darling
16. Anonyme (ca. 1640) – Greensleeves To A Ground-FRANCE
17. Anonyme / J. Savall – Une Jeune Fillette
18. J. B. Lully – Rondeau du Mariage forcé
19. Henry du Bailly – La Folia: Yo soy la Locura
20. J. B. Lully – Chaconne « L’Amour Medecin »
-Hespèrion XXI | Le Concert des Nations | Jordi Savall - director | Montserrat Figueras - soprano-Recording Date and Place: Enregistrements réalisés entre 1976 et 2008

cue

REM GENRE Classical
REM DATE 2008
REM DISCID 56101014
REM COMMENT "ExactAudioCopy v1.0b3"
CATALOG 7619986998114
PERFORMER "Hespиrion XXI"
TITLE "La barcha d'amore (1563-1685)"
FILE "01 La Barcha del mio amore (Gallarda).wav" WAVE
TRACK 01 AUDIO
TITLE "La Barcha del mio amore (Gallarda)"
PERFORMER "Hespиrion XXI"
INDEX 01 00:00:00
FILE "02 Le nuove Musiche- Amor ch'attendi.wav" WAVE
TRACK 02 AUDIO
TITLE "Le nuove Musiche: Amor ch'attendi"
PERFORMER "Hespиrion XXI"
INDEX 01 00:00:00
FILE "03 Le nuove Musiche- Alme luci beate.wav" WAVE
TRACK 03 AUDIO
TITLE "Le nuove Musiche: Alme luci beate"
PERFORMER "Hespиrion XXI"
INDEX 01 00:00:00
TRACK 04 AUDIO
TITLE "Le nuove Musiche: Non ha'l ciel"
PERFORMER "Hespиrion XXI"
INDEX 00 03:31:06
FILE "04 Le nuove Musiche- Non ha'l ciel.wav" WAVE
INDEX 01 00:00:00
TRACK 05 AUDIO
TITLE "Ostinato: Passacalio"
PERFORMER "Hespиrion XXI"
INDEX 00 02:35:37
FILE "05 Ostinato- Passacalio.wav" WAVE
INDEX 01 00:00:00
TRACK 06 AUDIO
TITLE "Madrigali guerrieri et amorosi: Non havea febo ancora"
PERFORMER "Hespиrion XXI"
INDEX 00 05:44:30
FILE "06 Madrigali guerrieri et amorosi- Non havea febo ancora.wav" WAVE
INDEX 01 00:00:00
FILE "07 Madrigali guerrieri et amorosi- Lamento della ninfa.wav" WAVE
TRACK 07 AUDIO
TITLE "Madrigali guerrieri et amorosi: Lamento della ninfa"
PERFORMER "Hespиrion XXI"
INDEX 01 00:00:00
FILE "08 Madrigali guerrieri et amorosi- Si tra sdegnosi pianti.wav" WAVE
TRACK 08 AUDIO
TITLE "Madrigali guerrieri et amorosi: Si tra sdegnosi pianti"
PERFORMER "Hespиrion XXI"
INDEX 01 00:00:00
TRACK 09 AUDIO
TITLE "Ludi musici: Paduan Dolorosa A 4 Voc. Cantus V"
PERFORMER "Hespиrion XXI"
INDEX 00 00:45:32
FILE "09 Ludi musici- Paduan Dolorosa A 4 Voc. Cantus V.wav" WAVE
INDEX 01 00:00:00
FILE "10 Ludi musici- Courant Dolorosa A 4 Voc. Cantus IX.wav" WAVE
TRACK 10 AUDIO
TITLE "Ludi musici: Courant Dolorosa A 4 Voc. Cantus IX"
PERFORMER "Hespиrion XXI"
INDEX 01 00:00:00
TRACK 11 AUDIO
TITLE "Sosieguen descansen"
PERFORMER "Hespиrion XXI"
INDEX 00 02:25:64
FILE "11 Sosieguen descansen.wav" WAVE
INDEX 01 00:00:00
FILE "12 No te embarques.wav" WAVE
TRACK 12 AUDIO
TITLE "No te embarques"
PERFORMER "Hespиrion XXI"
INDEX 01 00:00:00
TRACK 13 AUDIO
TITLE "Ay que me rio de Amor"
PERFORMER "Hespиrion XXI"
INDEX 00 02:33:29
FILE "13 Ay que me rio de Amor.wav" WAVE
INDEX 01 00:00:00
TRACK 14 AUDIO
TITLE "Desperada"
PERFORMER "Hespиrion XXI"
INDEX 00 01:53:23
FILE "14 Desperada.wav" WAVE
INDEX 01 00:00:00
FILE "15 Lullaby- My little sweet darling.wav" WAVE
TRACK 15 AUDIO
TITLE "Lullaby: My little sweet darling"
PERFORMER "Hespиrion XXI"
INDEX 01 00:00:00
FILE "16 Greensleves to a ground.wav" WAVE
TRACK 16 AUDIO
TITLE "Greensleves to a ground"
PERFORMER "Hespиrion XXI"
INDEX 01 00:00:00
TRACK 17 AUDIO
TITLE "Une jeune fillette"
PERFORMER "Hespиrion XXI"
INDEX 00 08:53:37
FILE "17 Une jeune fillette.wav" WAVE
INDEX 01 00:00:00
TRACK 18 AUDIO
TITLE "Le Divertissement Royal: Rondeau du Mariage forcй"
PERFORMER "Hespиrion XXI"
INDEX 00 01:59:42
FILE "18 Le Divertissement Royal- Rondeau du Mariage forcй.wav" WAVE
INDEX 01 00:00:00
FILE "19 La Folia- Yo soy la Locura.wav" WAVE
TRACK 19 AUDIO
TITLE "La Folia: Yo soy la Locura"
PERFORMER "Hespиrion XXI"
INDEX 01 00:00:00
TRACK 20 AUDIO
TITLE "Chaconne 'L'Amour Medecin'"
PERFORMER "Hespиrion XXI"
INDEX 00 02:35:23
FILE "20 Chaconne ''L'Amour Medecin''.wav" WAVE
INDEX 01 00:00:00

EAC

Exact Audio Copy V1.0 beta 3 from 29. August 2011
EAC extraction logfile from 18. April 2014, 16:41
Hespèrion XXI / La barcha d'amore (1563-1685)
Used drive : Optiarc DVD+-RW AD-7230S Adapter: 0 ID: 2
Read mode : Secure
Utilize accurate stream : Yes
Defeat audio cache : Yes
Make use of C2 pointers : No
Read offset correction : 48
Overread into Lead-In and Lead-Out : No
Fill up missing offset samples with silence : Yes
Delete leading and trailing silent blocks : No
Null samples used in CRC calculations : Yes
Used interface : Native Win32 interface for Win NT & 2000
Gap handling : Appended to previous track
Used output format : User Defined Encoder
Selected bitrate : 1024 kBit/s
Quality : High
Add ID3 tag : No
Command line compressor : C:\Program Files (x86)\FLAC\flac.exe
Additional command line options : -8 -V -T "ARTIST=%artist%" -T "TITLE=%title%" -T "ALBUM=%albumtitle%" -T "DATE=%year%" -T "TRACKNUMBER=%tracknr%" -T "GENRE=%genre%" -T "PERFORMER=%albuminterpret%" -T "COMPOSER=%composer%" %haslyrics%--tag-from-file=LYRICS="%lyricsfile%"%haslyrics% -T "ALBUMARTIST=%albumartist%" -T "DISCNUMBER=%cdnumber%" -T "TOTALDISCS=%totalcds%" -T "TOTALTRACKS=%numtracks%" -T "COMMENT=%comment%" %source% -o %dest%
TOC of the extracted CD
Track | Start | Length | Start sector | End sector
---------------------------------------------------------
1 | 0:00.00 | 1:57.64 | 0 | 8838
2 | 1:57.64 | 2:19.38 | 8839 | 19301
3 | 4:17.27 | 3:34.42 | 19302 | 35393
4 | 7:51.69 | 2:38.48 | 35394 | 47291
5 | 10:30.42 | 5:46.73 | 47292 | 73314
6 | 16:17.40 | 1:45.59 | 73315 | 81248
7 | 18:03.24 | 4:21.69 | 81249 | 100892
8 | 22:25.18 | 0:50.33 | 100893 | 104675
9 | 23:15.51 | 7:27.65 | 104676 | 138265
10 | 30:43.41 | 2:29.67 | 138266 | 149507
11 | 33:13.33 | 5:22.67 | 149508 | 173724
12 | 38:36.25 | 2:35.09 | 173725 | 185358
13 | 41:11.34 | 1:55.63 | 185359 | 194046
14 | 43:07.22 | 1:48.41 | 194047 | 202187
15 | 44:55.63 | 3:58.11 | 202188 | 220048
16 | 48:53.74 | 8:56.16 | 220049 | 260264
17 | 57:50.15 | 2:01.27 | 260265 | 269366
18 | 59:51.42 | 2:34.17 | 269367 | 280933
19 | 62:25.59 | 2:37.17 | 280934 | 292725
20 | 65:03.01 | 3:29.33 | 292726 | 308433
Track 1
Filename E:\[AddWhatCD\Barcha d'Amore - Savall - f\01 La Barcha del mio amore (Gallarda).wav
Pre-gap length 0:00:02.00
Peak level 85.9 %
Extraction speed 1.7 X
Track quality 99.9 %
Test CRC BA1CD948
Copy CRC BA1CD948
Accurately ripped (confidence 14) [B5A77E66] (AR v2)
Copy OK
Track 2
Filename E:\[AddWhatCD\Barcha d'Amore - Savall - f\02 Le nuove Musiche- Amor ch'attendi.wav
Peak level 98.8 %
Extraction speed 2.4 X
Track quality 100.0 %
Test CRC 48323236
Copy CRC 48323236
Accurately ripped (confidence 14) [9465DAAB] (AR v2)
Copy OK
Track 3
Filename E:\[AddWhatCD\Barcha d'Amore - Savall - f\03 Le nuove Musiche- Alme luci beate.wav
Peak level 98.8 %
Extraction speed 2.8 X
Track quality 100.0 %
Test CRC DC0C5F19
Copy CRC DC0C5F19
Accurately ripped (confidence 14) [7DD63516] (AR v2)
Copy OK
Track 4
Filename E:\[AddWhatCD\Barcha d'Amore - Savall - f\04 Le nuove Musiche- Non ha'l ciel.wav
Pre-gap length 0:00:03.48
Peak level 98.8 %
Extraction speed 2.8 X
Track quality 100.0 %
Test CRC F1DE9CD7
Copy CRC F1DE9CD7
Accurately ripped (confidence 14) [2A04546E] (AR v2)
Copy OK
Track 5
Filename E:\[AddWhatCD\Barcha d'Amore - Savall - f\05 Ostinato- Passacalio.wav
Pre-gap length 0:00:03.14
Peak level 98.3 %
Extraction speed 3.3 X
Track quality 100.0 %
Test CRC CFFB3C61
Copy CRC CFFB3C61
Accurately ripped (confidence 14) [192C368B] (AR v2)
Copy OK
Track 6
Filename E:\[AddWhatCD\Barcha d'Amore - Savall - f\06 Madrigali guerrieri et amorosi- Non havea febo ancora.wav
Pre-gap length 0:00:02.57
Peak level 95.5 %
Extraction speed 2.9 X
Track quality 100.0 %
Test CRC DC25B417
Copy CRC DC25B417
Accurately ripped (confidence 15) [1CE0032C] (AR v2)
Copy OK
Track 7
Filename E:\[AddWhatCD\Barcha d'Amore - Savall - f\07 Madrigali guerrieri et amorosi- Lamento della ninfa.wav
Peak level 95.5 %
Extraction speed 3.2 X
Track quality 99.9 %
Test CRC EB34C783
Copy CRC EB34C783
Accurately ripped (confidence 15) [7C212AA9] (AR v2)
Copy OK
Track 8
Filename E:\[AddWhatCD\Barcha d'Amore - Savall - f\08 Madrigali guerrieri et amorosi- Si tra sdegnosi pianti.wav
Peak level 86.0 %
Extraction speed 1.7 X
Track quality 99.7 %
Test CRC CD5DFBD8
Copy CRC CD5DFBD8
Accurately ripped (confidence 15) [D5493291] (AR v2)
Copy OK
Track 9
Filename E:\[AddWhatCD\Barcha d'Amore - Savall - f\09 Ludi musici- Paduan Dolorosa A 4 Voc. Cantus V.wav
Pre-gap length 0:00:05.01
Peak level 83.8 %
Extraction speed 3.8 X
Track quality 99.9 %
Test CRC 011CB28E
Copy CRC 011CB28E
Accurately ripped (confidence 14) [0126ED31] (AR v2)
Copy OK
Track 10
Filename E:\[AddWhatCD\Barcha d'Amore - Savall - f\10 Ludi musici- Courant Dolorosa A 4 Voc. Cantus IX.wav
Peak level 88.1 %
Extraction speed 3.7 X
Track quality 100.0 %
Test CRC DEE13CEA
Copy CRC DEE13CEA
Accurately ripped (confidence 14) [D2CCAF9B] (AR v2)
Copy OK
Track 11
Filename E:\[AddWhatCD\Barcha d'Amore - Savall - f\11 Sosieguen descansen.wav
Pre-gap length 0:00:04.04
Peak level 95.5 %
Extraction speed 4.3 X
Track quality 100.0 %
Test CRC CE0D3721
Copy CRC CE0D3721
Accurately ripped (confidence 14) [30613D09] (AR v2)
Copy OK
Track 12
Filename E:\[AddWhatCD\Barcha d'Amore - Savall - f\12 No te embarques.wav
Peak level 95.5 %
Extraction speed 4.0 X
Track quality 100.0 %
Test CRC 52885398
Copy CRC 52885398
Accurately ripped (confidence 14) [26A09C7D] (AR v2)
Copy OK
Track 13
Filename E:\[AddWhatCD\Barcha d'Amore - Savall - f\13 Ay que me rio de Amor.wav
Pre-gap length 0:00:01.73
Peak level 95.5 %
Extraction speed 3.1 X
Track quality 99.9 %
Test CRC 4800A335
Copy CRC 4800A335
Accurately ripped (confidence 14) [2987D865] (AR v2)
Copy OK
Track 14
Filename E:\[AddWhatCD\Barcha d'Amore - Savall - f\14 Desperada.wav
Pre-gap length 0:00:02.53
Peak level 95.4 %
Extraction speed 3.0 X
Track quality 99.9 %
Test CRC 831D6DAB
Copy CRC 831D6DAB
Accurately ripped (confidence 14) [99204D37] (AR v2)
Copy OK
Track 15
Filename E:\[AddWhatCD\Barcha d'Amore - Savall - f\15 Lullaby- My little sweet darling.wav
Peak level 95.5 %
Extraction speed 4.6 X
Track quality 100.0 %
Test CRC 0F1EC0A5
Copy CRC 0F1EC0A5
Accurately ripped (confidence 14) [F7A49F38] (AR v2)
Copy OK
Track 16
Filename E:\[AddWhatCD\Barcha d'Amore - Savall - f\16 Greensleves to a ground.wav
Peak level 95.5 %
Extraction speed 5.2 X
Track quality 100.0 %
Test CRC 1FBA3242
Copy CRC 1FBA3242
Accurately ripped (confidence 14) [728B8E1C] (AR v2)
Copy OK
Track 17
Filename E:\[AddWhatCD\Barcha d'Amore - Savall - f\17 Une jeune fillette.wav
Pre-gap length 0:00:02.72
Peak level 95.5 %
Extraction speed 4.3 X
Track quality 100.0 %
Test CRC E7D3024B
Copy CRC E7D3024B
Accurately ripped (confidence 14) [8CBEC0DB] (AR v2)
Copy OK
Track 18
Filename E:\[AddWhatCD\Barcha d'Amore - Savall - f\18 Le Divertissement Royal- Rondeau du Mariage forcé.wav
Pre-gap length 0:00:01.80
Peak level 82.7 %
Extraction speed 4.6 X
Track quality 100.0 %
Test CRC 753E999E
Copy CRC 753E999E
Accurately ripped (confidence 14) [257B7F79] (AR v2)
Copy OK
Track 19
Filename E:\[AddWhatCD\Barcha d'Amore - Savall - f\19 La Folia- Yo soy la Locura.wav
Peak level 95.5 %
Extraction speed 4.7 X
Track quality 100.0 %
Test CRC F53AD45B
Copy CRC F53AD45B
Accurately ripped (confidence 14) [4FE9ECD9] (AR v2)
Copy OK
Track 20
Filename E:\[AddWhatCD\Barcha d'Amore - Savall - f\20 Chaconne ''L'Amour Medecin''.wav
Pre-gap length 0:00:01.92
Peak level 95.4 %
Extraction speed 5.1 X
Track quality 100.0 %
Test CRC AB7E002B
Copy CRC AB7E002B
Accurately ripped (confidence 14) [E6D549C4] (AR v2)
Copy OK
All tracks accurately ripped
No errors occurred
End of status report
---- CUETools DB Plugin V2.1.3
[CTDB TOCID: CnLsJFWRY5QCX.qbs4OcJkWCvtI-] found, Submit result: CnLsJFWRY5QCX.qbs4OcJkWCvtI- has been confirmed
[8c1111ec] (15/15) Accurately ripped
==== Log checksum AAC5A1E95B4B17FB928FFF4E70F7E73A570E124129A61E30EAED72B54B7F34FB ====



Показать сообщения:    

Текущее время: 04-Дек 06:55

Часовой пояс: UTC + 3


Вы не можете начинать темы
Вы не можете отвечать на сообщения
Вы не можете редактировать свои сообщения
Вы не можете удалять свои сообщения
Вы не можете голосовать в опросах
Вы не можете прикреплять файлы к сообщениям
Вы не можете скачивать файлы