(Classical/Chamber/Renaissance) Ministriles Reales 1450-1530 (Hesperion XX & XXI • Jordi Savall) [Alia Vox] - 2009, FLAC (tracks+.cue) lossless


 

[Цитировать]

Hespèrion XX & XXI • Jordi Savall — Ministriles Reales-Classical/Chamber/Renaissance • Alia Vox • AVSA9864 • 2009 • lossless • FLAC • tracks+.cue • 02:15:48 • what.cd-Hespèrion XX & XXI || Jordi Savall - director
Recorded: 1987, 2004-

Tracklist

01. Anónimo - La Spagna (basse dance)
02. Anónimo - Dit le Bourguynon
03. Juan del Enzina - Quedate, Carillo (villancico)
04. H. van Ghizeghem - De tous biens plaine (Chanson)
05. Anónimo - Collinetto
06. Anónimo - In Exitu Israel
07. Johannes Cornago - Basse danse: Mappa mundi
08. Anónimo - Chiave, chiave (toccata instrumental)
09. Enrique - Pues con sombra de tristura (villancico)
10. Anónimo - Buenas nuevas de alegria (villancico)
11. Anónimo - Si de vos mi bien (villancico)
12. Anónimo - El cervel mi fa
13. Ramos de Pareja - Mundus Et Musica (Canon Perpetuum)
14. Belmonte - Glosa sobre 'Nunca fue pena mayor'
15. H. de Xerés - No tenga nadie sperança (villancico)
16. Juan Urrede - Muy triste será mi vida (villancico)
17. Anónimo - Propinan de Melyor
18. Anónimo - Fantasia
19. Francisco de la Torre - Danza alta
20. Anónimo - Estas noches a tan largas (villancico)
21. Garci Sánchez de Badajoz - O desdichado de mi (villancico)
22. Juan Ponçe - Ave color vini clari
23. Gabriel - A sombra de mis cabellos
24. J. de Triana - Quien vos dio tal señorio? (villancico)
25. Anónimo - Un niño nos es nacido (villancico)
26. Carlo Verardi - Viva el gran Re Don Fernando
27. Josquin des Prés - Vive le Roy
28. Josquin des Prés - La Spagna, a 5-01. Juan del Enzina - Mortal tristura me dieron (villancico)
02. Anónimo - Diferencias sobre las vacas
03. Clement Janequin - Pavana 'La Battaglia' per sonar
04. Pedro Guerrero - La Moresca
05. Diego Ortiz - Passamezzo Moderno III, 1553
06. Diego Ortiz - Romanesca VII
07. Antonio de Cabezón - Tiento III Primer tono
08. Francisco Guerrero - Glosas sobre 'Hermosa Catalina'
09. Román - O voy
10. Anónimo - Buelbe tus claros ojos (villancico)
11. Antonio de Cabezón - Diferencias sobre 'La Dama le demanda'
12. H. de Cabezon - 'Susana un jur' (Glosa)
13. Lluis del Milà - Pavana, Gallarda
14. Lluis del Milà - Fantasia VIII
15. Orlando di Lasso - Jam lucis orto sidere
16. S. Aguilera de Heredia - Ensalada
17. Antonio de Cabezón - Himno XVI
18. F. Correa de Arrauxo - Batalla de Morales
19. Orlando di Lasso - Omnes de Saba venient
20. S. Aguilera de Heredia - Tiento de Batalla
21. Orlando di Lasso - Alme Deus, qui cuncta tenes
22. Joan Cabanilles - Batalla Imperial

Logscue - CD1

REM GENRE Classical
REM DATE 1978
REM DISCID A70FE91C
REM COMMENT "ExactAudioCopy v1.0b3"
PERFORMER "Hesperion XX & Jordi Savall"
TITLE "Ministriles Reales - I. Villancicos y Danzas de Altas y Baixas 1450 - 1530"
FILE "01 Anуnimo - La Spagna (basse dance).wav" WAVE
TRACK 01 AUDIO
TITLE "Anуnimo - La Spagna (basse dance)"
PERFORMER "Hesperion XX & Jordi Savall"
INDEX 01 00:00:00
FILE "02 Anуnimo - Dit le Bourguynon.wav" WAVE
TRACK 02 AUDIO
TITLE "Anуnimo - Dit le Bourguynon"
PERFORMER "Hesperion XX & Jordi Savall"
INDEX 01 00:00:00
FILE "03 Juan del Enzina - Quedate, Carillo (villancico).wav" WAVE
TRACK 03 AUDIO
TITLE "Juan del Enzina - Quedate, Carillo (villancico)"
PERFORMER "Hesperion XX & Jordi Savall"
INDEX 01 00:00:00
FILE "04 H. van Ghizeghem - De tous biens plaine (Chanson).wav" WAVE
TRACK 04 AUDIO
TITLE "H. van Ghizeghem - De tous biens plaine (Chanson)"
PERFORMER "Hesperion XX & Jordi Savall"
INDEX 01 00:00:00
FILE "05 Anуnimo - Collinetto.wav" WAVE
TRACK 05 AUDIO
TITLE "Anуnimo - Collinetto"
PERFORMER "Hesperion XX & Jordi Savall"
INDEX 01 00:00:00
FILE "06 Anуnimo - In Exitu Israel.wav" WAVE
TRACK 06 AUDIO
TITLE "Anуnimo - In Exitu Israel"
PERFORMER "Hesperion XX & Jordi Savall"
INDEX 01 00:00:00
FILE "07 Johannes Cornago - Basse danse- Mappa mundi.wav" WAVE
TRACK 07 AUDIO
TITLE "Johannes Cornago - Basse danse: Mappa mundi"
PERFORMER "Hesperion XX & Jordi Savall"
INDEX 01 00:00:00
FILE "08 Anуnimo - Chiave, chiave (toccata instrumental).wav" WAVE
TRACK 08 AUDIO
TITLE "Anуnimo - Chiave, chiave (toccata instrumental)"
PERFORMER "Hesperion XX & Jordi Savall"
INDEX 01 00:00:00
FILE "09 Enrique - Pues con sombra de tristura (villancico).wav" WAVE
TRACK 09 AUDIO
TITLE "Enrique - Pues con sombra de tristura (villancico)"
PERFORMER "Hesperion XX & Jordi Savall"
INDEX 01 00:00:00
FILE "10 Anуnimo - Buenas nuevas de alegria (villancico).wav" WAVE
TRACK 10 AUDIO
TITLE "Anуnimo - Buenas nuevas de alegria (villancico)"
PERFORMER "Hesperion XX & Jordi Savall"
INDEX 01 00:00:00
FILE "11 Anуnimo - Si de vos mi bien (villancico).wav" WAVE
TRACK 11 AUDIO
TITLE "Anуnimo - Si de vos mi bien (villancico)"
PERFORMER "Hesperion XX & Jordi Savall"
INDEX 01 00:00:00
FILE "12 Anуnimo - El cervel mi fa.wav" WAVE
TRACK 12 AUDIO
TITLE "Anуnimo - El cervel mi fa"
PERFORMER "Hesperion XX & Jordi Savall"
INDEX 01 00:00:00
FILE "13 Ramos de Pareja - Mundus Et Musica (Canon Perpetuum).wav" WAVE
TRACK 13 AUDIO
TITLE "Ramos de Pareja - Mundus Et Musica (Canon Perpetuum)"
PERFORMER "Hesperion XX & Jordi Savall"
INDEX 01 00:00:00
FILE "14 Belmonte - Glosa sobre 'Nunca fue pena mayor'.wav" WAVE
TRACK 14 AUDIO
TITLE "Belmonte - Glosa sobre 'Nunca fue pena mayor'"
PERFORMER "Hesperion XX & Jordi Savall"
INDEX 01 00:00:00
FILE "15 H. de Xerйs - No tenga nadie speranзa (villancico).wav" WAVE
TRACK 15 AUDIO
TITLE "H. de Xerйs - No tenga nadie speranзa (villancico)"
PERFORMER "Hesperion XX & Jordi Savall"
INDEX 01 00:00:00
FILE "16 Juan Urrede - Muy triste serб mi vida (villancico).wav" WAVE
TRACK 16 AUDIO
TITLE "Juan Urrede - Muy triste serб mi vida (villancico)"
PERFORMER "Hesperion XX & Jordi Savall"
INDEX 01 00:00:00
FILE "17 Anуnimo - Propinan de Melyor.wav" WAVE
TRACK 17 AUDIO
TITLE "Anуnimo - Propinan de Melyor"
PERFORMER "Hesperion XX & Jordi Savall"
INDEX 01 00:00:00
FILE "18 Anуnimo - Fantasia.wav" WAVE
TRACK 18 AUDIO
TITLE "Anуnimo - Fantasia"
PERFORMER "Hesperion XX & Jordi Savall"
INDEX 01 00:00:00
FILE "19 Francisco de la Torre - Danza alta.wav" WAVE
TRACK 19 AUDIO
TITLE "Francisco de la Torre - Danza alta"
PERFORMER "Hesperion XX & Jordi Savall"
INDEX 01 00:00:00
FILE "20 Anуnimo - Estas noches a tan largas (villancico).wav" WAVE
TRACK 20 AUDIO
TITLE "Anуnimo - Estas noches a tan largas (villancico)"
PERFORMER "Hesperion XX & Jordi Savall"
INDEX 01 00:00:00
FILE "21 Garci Sбnchez de Badajoz - O desdichado de mi (villancico).wav" WAVE
TRACK 21 AUDIO
TITLE "Garci Sбnchez de Badajoz - O desdichado de mi (villancico)"
PERFORMER "Hesperion XX & Jordi Savall"
INDEX 01 00:00:00
FILE "22 Juan Ponзe - Ave color vini clari.wav" WAVE
TRACK 22 AUDIO
TITLE "Juan Ponзe - Ave color vini clari"
PERFORMER "Hesperion XX & Jordi Savall"
INDEX 01 00:00:00
FILE "23 Gabriel - A sombra de mis cabellos.wav" WAVE
TRACK 23 AUDIO
TITLE "Gabriel - A sombra de mis cabellos"
PERFORMER "Hesperion XX & Jordi Savall"
INDEX 01 00:00:00
FILE "24 J. de Triana - Quien vos dio tal seсorio (villancico).wav" WAVE
TRACK 24 AUDIO
TITLE "J. de Triana - Quien vos dio tal seсorio? (villancico)"
PERFORMER "Hesperion XX & Jordi Savall"
INDEX 01 00:00:00
FILE "25 Anуnimo - Un niсo nos es nacido (villancico).wav" WAVE
TRACK 25 AUDIO
TITLE "Anуnimo - Un niсo nos es nacido (villancico)"
PERFORMER "Hesperion XX & Jordi Savall"
INDEX 01 00:00:00
FILE "26 Carlo Verardi - Viva el gran Re Don Fernando.wav" WAVE
TRACK 26 AUDIO
TITLE "Carlo Verardi - Viva el gran Re Don Fernando"
PERFORMER "Hesperion XX & Jordi Savall"
INDEX 01 00:00:00
FILE "27 Josquin des Prйs - Vive le Roy.wav" WAVE
TRACK 27 AUDIO
TITLE "Josquin des Prйs - Vive le Roy"
PERFORMER "Hesperion XX & Jordi Savall"
INDEX 01 00:00:00
FILE "28 Josquin des Prйs - La Spagna, a 5.wav" WAVE
TRACK 28 AUDIO
TITLE "Josquin des Prйs - La Spagna, a 5"
PERFORMER "Hesperion XX & Jordi Savall"
INDEX 01 00:00:00

log - CD1

Exact Audio Copy V1.0 beta 3 from 29. August 2011
EAC extraction logfile from 19. April 2014, 12:24
Hesperion XX & Jordi Savall / Ministriles Reales - I. Villancicos y Danzas de Altas y Baixas 1450 - 1530
Used drive : Optiarc DVD+-RW AD-7230S Adapter: 0 ID: 2
Read mode : Secure
Utilize accurate stream : Yes
Defeat audio cache : Yes
Make use of C2 pointers : No
Read offset correction : 48
Overread into Lead-In and Lead-Out : No
Fill up missing offset samples with silence : Yes
Delete leading and trailing silent blocks : No
Null samples used in CRC calculations : Yes
Used interface : Native Win32 interface for Win NT & 2000
Gap handling : Appended to previous track
Used output format : User Defined Encoder
Selected bitrate : 1024 kBit/s
Quality : High
Add ID3 tag : No
Command line compressor : C:\Program Files (x86)\FLAC\flac.exe
Additional command line options : -8 -V -T "ARTIST=%artist%" -T "TITLE=%title%" -T "ALBUM=%albumtitle%" -T "DATE=%year%" -T "TRACKNUMBER=%tracknr%" -T "GENRE=%genre%" -T "PERFORMER=%albuminterpret%" -T "COMPOSER=%composer%" %haslyrics%--tag-from-file=LYRICS="%lyricsfile%"%haslyrics% -T "ALBUMARTIST=%albumartist%" -T "DISCNUMBER=%cdnumber%" -T "TOTALDISCS=%totalcds%" -T "TOTALTRACKS=%numtracks%" -T "COMMENT=%comment%" %source% -o %dest%
TOC of the extracted CD
Track | Start | Length | Start sector | End sector
---------------------------------------------------------
1 | 0:00.00 | 1:41.48 | 0 | 7622
2 | 1:41.48 | 1:18.24 | 7623 | 13496
3 | 2:59.72 | 1:20.03 | 13497 | 19499
4 | 4:20.00 | 4:14.61 | 19500 | 38610
5 | 8:34.61 | 3:00.10 | 38611 | 52120
6 | 11:34.71 | 1:23.12 | 52121 | 58357
7 | 12:58.08 | 2:25.59 | 58358 | 69291
8 | 15:23.67 | 1:28.39 | 69292 | 75930
9 | 16:52.31 | 4:16.70 | 75931 | 95200
10 | 21:09.26 | 1:39.26 | 95201 | 102651
11 | 22:48.52 | 3:14.58 | 102652 | 117259
12 | 26:03.35 | 1:41.52 | 117260 | 124886
13 | 27:45.12 | 1:34.29 | 124887 | 131965
14 | 29:19.41 | 3:06.68 | 131966 | 145983
15 | 32:26.34 | 3:19.15 | 145984 | 160923
16 | 35:45.49 | 3:08.68 | 160924 | 175091
17 | 38:54.42 | 1:21.49 | 175092 | 181215
18 | 40:16.16 | 1:46.50 | 181216 | 189215
19 | 42:02.66 | 2:11.24 | 189216 | 199064
20 | 44:14.15 | 4:30.13 | 199065 | 219327
21 | 48:44.28 | 3:23.28 | 219328 | 234580
22 | 52:07.56 | 1:45.16 | 234581 | 242471
23 | 53:52.72 | 1:01.43 | 242472 | 247089
24 | 54:54.40 | 4:20.73 | 247090 | 266662
25 | 59:15.38 | 2:01.14 | 266663 | 275751
26 | 61:16.52 | 1:57.47 | 275752 | 284573
27 | 63:14.24 | 1:25.32 | 284574 | 290980
28 | 64:39.56 | 3:13.26 | 290981 | 305481
Track 1
Filename E:\[AddWhatCD\Ministriles Reales - Savall - f\d1\01 Anónimo - La Spagna (basse dance).wav
Pre-gap length 0:00:02.00
Peak level 59.4 %
Extraction speed 2.1 X
Track quality 100.0 %
Test CRC BD9AA2C9
Copy CRC BD9AA2C9
Accurately ripped (confidence 11) [DD223036] (AR v2)
Copy OK
Track 2
Filename E:\[AddWhatCD\Ministriles Reales - Savall - f\d1\02 Anónimo - Dit le Bourguynon.wav
Peak level 71.5 %
Extraction speed 1.5 X
Track quality 99.8 %
Test CRC A55A6E53
Copy CRC A55A6E53
Accurately ripped (confidence 11) [7D5443C2] (AR v2)
Copy OK
Track 3
Filename E:\[AddWhatCD\Ministriles Reales - Savall - f\d1\03 Juan del Enzina - Quedate, Carillo (villancico).wav
Peak level 70.1 %
Extraction speed 1.6 X
Track quality 99.8 %
Test CRC 7A1568E2
Copy CRC 7A1568E2
Accurately ripped (confidence 11) [36E4A6B1] (AR v2)
Copy OK
Track 4
Filename E:\[AddWhatCD\Ministriles Reales - Savall - f\d1\04 H. van Ghizeghem - De tous biens plaine (Chanson).wav
Peak level 46.9 %
Extraction speed 2.9 X
Track quality 100.0 %
Test CRC DC9243ED
Copy CRC DC9243ED
Accurately ripped (confidence 11) [BA047BA8] (AR v2)
Copy OK
Track 5
Filename E:\[AddWhatCD\Ministriles Reales - Savall - f\d1\05 Anónimo - Collinetto.wav
Peak level 73.2 %
Extraction speed 2.9 X
Track quality 100.0 %
Test CRC 7CF7E1D8
Copy CRC 7CF7E1D8
Accurately ripped (confidence 11) [49F64FC8] (AR v2)
Copy OK
Track 6
Filename E:\[AddWhatCD\Ministriles Reales - Savall - f\d1\06 Anónimo - In Exitu Israel.wav
Peak level 73.4 %
Extraction speed 2.5 X
Track quality 100.0 %
Test CRC 4C2BE97C
Copy CRC 4C2BE97C
Accurately ripped (confidence 11) [1FDCEEE7] (AR v2)
Copy OK
Track 7
Filename E:\[AddWhatCD\Ministriles Reales - Savall - f\d1\07 Johannes Cornago - Basse danse- Mappa mundi.wav
Peak level 63.5 %
Extraction speed 3.0 X
Track quality 100.0 %
Test CRC AAF0FFE8
Copy CRC AAF0FFE8
Accurately ripped (confidence 11) [7BB1F35C] (AR v2)
Copy OK
Track 8
Filename E:\[AddWhatCD\Ministriles Reales - Savall - f\d1\08 Anónimo - Chiave, chiave (toccata instrumental).wav
Peak level 72.2 %
Extraction speed 2.7 X
Track quality 100.0 %
Test CRC 2C0B0347
Copy CRC 2C0B0347
Accurately ripped (confidence 11) [A4051F27] (AR v2)
Copy OK
Track 9
Filename E:\[AddWhatCD\Ministriles Reales - Savall - f\d1\09 Enrique - Pues con sombra de tristura (villancico).wav
Peak level 53.6 %
Extraction speed 3.1 X
Track quality 99.9 %
Test CRC 64D3AE45
Copy CRC 64D3AE45
Accurately ripped (confidence 11) [D062ED5E] (AR v2)
Copy OK
Track 10
Filename E:\[AddWhatCD\Ministriles Reales - Savall - f\d1\10 Anónimo - Buenas nuevas de alegria (villancico).wav
Peak level 35.0 %
Extraction speed 3.1 X
Track quality 100.0 %
Test CRC 0C15B5E7
Copy CRC 0C15B5E7
Accurately ripped (confidence 11) [79F3E1C3] (AR v2)
Copy OK
Track 11
Filename E:\[AddWhatCD\Ministriles Reales - Savall - f\d1\11 Anónimo - Si de vos mi bien (villancico).wav
Peak level 50.4 %
Extraction speed 3.6 X
Track quality 100.0 %
Test CRC 30BBEAD0
Copy CRC 30BBEAD0
Accurately ripped (confidence 11) [EF784194] (AR v2)
Copy OK
Track 12
Filename E:\[AddWhatCD\Ministriles Reales - Savall - f\d1\12 Anónimo - El cervel mi fa.wav
Peak level 69.3 %
Extraction speed 3.2 X
Track quality 100.0 %
Test CRC A71FA309
Copy CRC A71FA309
Accurately ripped (confidence 11) [AABE0200] (AR v2)
Copy OK
Track 13
Filename E:\[AddWhatCD\Ministriles Reales - Savall - f\d1\13 Ramos de Pareja - Mundus Et Musica (Canon Perpetuum).wav
Peak level 69.3 %
Extraction speed 3.2 X
Track quality 100.0 %
Test CRC 862B201F
Copy CRC 862B201F
Accurately ripped (confidence 11) [F41D7E56] (AR v2)
Copy OK
Track 14
Filename E:\[AddWhatCD\Ministriles Reales - Savall - f\d1\14 Belmonte - Glosa sobre 'Nunca fue pena mayor'.wav
Peak level 37.5 %
Extraction speed 3.3 X
Track quality 99.9 %
Test CRC C98D977B
Copy CRC C98D977B
Accurately ripped (confidence 11) [318DE7F9] (AR v2)
Copy OK
Track 15
Filename E:\[AddWhatCD\Ministriles Reales - Savall - f\d1\15 H. de Xerés - No tenga nadie sperança (villancico).wav
Peak level 48.7 %
Extraction speed 3.5 X
Track quality 99.9 %
Test CRC E29D9F13
Copy CRC E29D9F13
Accurately ripped (confidence 11) [F9432365] (AR v2)
Copy OK
Track 16
Filename E:\[AddWhatCD\Ministriles Reales - Savall - f\d1\16 Juan Urrede - Muy triste será mi vida (villancico).wav
Peak level 44.0 %
Extraction speed 3.5 X
Track quality 99.9 %
Test CRC F0BE8645
Copy CRC F0BE8645
Accurately ripped (confidence 11) [455B3AF7] (AR v2)
Copy OK
Track 17
Filename E:\[AddWhatCD\Ministriles Reales - Savall - f\d1\17 Anónimo - Propinan de Melyor.wav
Peak level 62.4 %
Extraction speed 2.6 X
Track quality 99.8 %
Test CRC FA7B20F7
Copy CRC FA7B20F7
Accurately ripped (confidence 11) [48706734] (AR v2)
Copy OK
Track 18
Filename E:\[AddWhatCD\Ministriles Reales - Savall - f\d1\18 Anónimo - Fantasia.wav
Peak level 72.2 %
Extraction speed 3.7 X
Track quality 100.0 %
Test CRC 69C404FE
Copy CRC 69C404FE
Accurately ripped (confidence 11) [4853DCD3] (AR v2)
Copy OK
Track 19
Filename E:\[AddWhatCD\Ministriles Reales - Savall - f\d1\19 Francisco de la Torre - Danza alta.wav
Peak level 77.7 %
Extraction speed 4.0 X
Track quality 100.0 %
Test CRC 95750798
Copy CRC 95750798
Accurately ripped (confidence 11) [52968C63] (AR v2)
Copy OK
Track 20
Filename E:\[AddWhatCD\Ministriles Reales - Savall - f\d1\20 Anónimo - Estas noches a tan largas (villancico).wav
Peak level 67.0 %
Extraction speed 4.6 X
Track quality 100.0 %
Test CRC 4AC3645E
Copy CRC 4AC3645E
Accurately ripped (confidence 11) [26F2D62C] (AR v2)
Copy OK
Track 21
Filename E:\[AddWhatCD\Ministriles Reales - Savall - f\d1\21 Garci Sánchez de Badajoz - O desdichado de mi (villancico).wav
Peak level 56.0 %
Extraction speed 4.6 X
Track quality 100.0 %
Test CRC 8B0C102A
Copy CRC 8B0C102A
Accurately ripped (confidence 11) [36886FFF] (AR v2)
Copy OK
Track 22
Filename E:\[AddWhatCD\Ministriles Reales - Savall - f\d1\22 Juan Ponçe - Ave color vini clari.wav
Peak level 56.3 %
Extraction speed 3.2 X
Track quality 99.8 %
Test CRC D20BEA30
Copy CRC D20BEA30
Accurately ripped (confidence 11) [5879B0D1] (AR v2)
Copy OK
Track 23
Filename E:\[AddWhatCD\Ministriles Reales - Savall - f\d1\23 Gabriel - A sombra de mis cabellos.wav
Peak level 52.1 %
Extraction speed 3.4 X
Track quality 100.0 %
Test CRC 52EDBD45
Copy CRC 52EDBD45
Accurately ripped (confidence 11) [42FE95A8] (AR v2)
Copy OK
Track 24
Filename E:\[AddWhatCD\Ministriles Reales - Savall - f\d1\24 J. de Triana - Quien vos dio tal señorio (villancico).wav
Peak level 46.7 %
Extraction speed 4.9 X
Track quality 100.0 %
Test CRC F530AD62
Copy CRC F530AD62
Accurately ripped (confidence 11) [0C4C01D7] (AR v2)
Copy OK
Track 25
Filename E:\[AddWhatCD\Ministriles Reales - Savall - f\d1\25 Anónimo - Un niño nos es nacido (villancico).wav
Peak level 78.1 %
Extraction speed 3.5 X
Track quality 99.9 %
Test CRC 094FC3AD
Copy CRC 094FC3AD
Accurately ripped (confidence 11) [D62EA944] (AR v2)
Copy OK
Track 26
Filename E:\[AddWhatCD\Ministriles Reales - Savall - f\d1\26 Carlo Verardi - Viva el gran Re Don Fernando.wav
Peak level 79.0 %
Extraction speed 4.5 X
Track quality 100.0 %
Test CRC BBAFA8F0
Copy CRC BBAFA8F0
Accurately ripped (confidence 11) [3F2A1D8E] (AR v2)
Copy OK
Track 27
Filename E:\[AddWhatCD\Ministriles Reales - Savall - f\d1\27 Josquin des Prés - Vive le Roy.wav
Peak level 56.2 %
Extraction speed 4.2 X
Track quality 100.0 %
Test CRC EBCDD94F
Copy CRC EBCDD94F
Accurately ripped (confidence 11) [300B873B] (AR v2)
Copy OK
Track 28
Filename E:\[AddWhatCD\Ministriles Reales - Savall - f\d1\28 Josquin des Prés - La Spagna, a 5.wav
Peak level 78.0 %
Extraction speed 5.0 X
Track quality 100.0 %
Test CRC 43351B59
Copy CRC 43351B59
Accurately ripped (confidence 11) [90FE80F5] (AR v2)
Copy OK
All tracks accurately ripped
No errors occurred
End of status report
---- CUETools DB Plugin V2.1.3
[CTDB TOCID: O8XLJP5NUVl7DDGZEvKPpRFGzJE-] found, Submit result: O8XLJP5NUVl7DDGZEvKPpRFGzJE- has been confirmed
[acc56d62] (14/14) Accurately ripped
==== Log checksum BA2C4CA396F7E7DA7616D827D88C0A643BA4A81537D4C5BE163097C747056220 ====

cue - CD2

REM GENRE Classical
REM DATE 2004
REM DISCID 500FEB16
REM COMMENT "ExactAudioCopy v1.0b3"
PERFORMER "Hesperion XXI & Jordi Savall"
TITLE "Ministriles Reales - II. Fantasias, Diferencias y Batallas 1530 - 1690"
FILE "01 Juan del Enzina - Mortal tristura me dieron (villancico).wav" WAVE
TRACK 01 AUDIO
TITLE "Juan del Enzina - Mortal tristura me dieron (villancico)"
PERFORMER "Hesperion XXI & Jordi Savall"
INDEX 01 00:00:00
FILE "02 Anуnimo - Diferencias sobre las vacas.wav" WAVE
TRACK 02 AUDIO
TITLE "Anуnimo - Diferencias sobre las vacas"
PERFORMER "Hesperion XXI & Jordi Savall"
INDEX 01 00:00:00
FILE "03 Clement Janequin - Pavana 'La Battaglia' per sonar.wav" WAVE
TRACK 03 AUDIO
TITLE "Clement Janequin - Pavana 'La Battaglia' per sonar"
PERFORMER "Hesperion XXI & Jordi Savall"
INDEX 01 00:00:00
FILE "04 Pedro Guerrero - La Moresca.wav" WAVE
TRACK 04 AUDIO
TITLE "Pedro Guerrero - La Moresca"
PERFORMER "Hesperion XXI & Jordi Savall"
INDEX 01 00:00:00
FILE "05 Diego Ortiz - Passamezzo Moderno III, 1553.wav" WAVE
TRACK 05 AUDIO
TITLE "Diego Ortiz - Passamezzo Moderno III, 1553"
PERFORMER "Hesperion XXI & Jordi Savall"
INDEX 01 00:00:00
FILE "06 Diego Ortiz - Romanesca VII.wav" WAVE
TRACK 06 AUDIO
TITLE "Diego Ortiz - Romanesca VII"
PERFORMER "Hesperion XXI & Jordi Savall"
INDEX 01 00:00:00
FILE "07 Antonio de Cabezуn - Tiento III Primer tono.wav" WAVE
TRACK 07 AUDIO
TITLE "Antonio de Cabezуn - Tiento III Primer tono"
PERFORMER "Hesperion XXI & Jordi Savall"
INDEX 01 00:00:00
FILE "08 Francisco Guerrero - Glosas sobre 'Hermosa Catalina'.wav" WAVE
TRACK 08 AUDIO
TITLE "Francisco Guerrero - Glosas sobre 'Hermosa Catalina'"
PERFORMER "Hesperion XXI & Jordi Savall"
INDEX 01 00:00:00
FILE "09 Romбn - O voy.wav" WAVE
TRACK 09 AUDIO
TITLE "Romбn - O voy"
PERFORMER "Hesperion XXI & Jordi Savall"
INDEX 01 00:00:00
FILE "10 Anуnimo - Buelbe tus claros ojos (villancico).wav" WAVE
TRACK 10 AUDIO
TITLE "Anуnimo - Buelbe tus claros ojos (villancico)"
PERFORMER "Hesperion XXI & Jordi Savall"
INDEX 01 00:00:00
FILE "11 Antonio de Cabezуn - Diferencias sobre 'La Dama le demanda'.wav" WAVE
TRACK 11 AUDIO
TITLE "Antonio de Cabezуn - Diferencias sobre 'La Dama le demanda'"
PERFORMER "Hesperion XXI & Jordi Savall"
INDEX 01 00:00:00
FILE "12 H. de Cabezon - 'Susana un jur' (Glosa).wav" WAVE
TRACK 12 AUDIO
TITLE "H. de Cabezon - 'Susana un jur' (Glosa)"
PERFORMER "Hesperion XXI & Jordi Savall"
INDEX 01 00:00:00
FILE "13 Lluis del Milа - Pavana, Gallarda.wav" WAVE
TRACK 13 AUDIO
TITLE "Lluis del Milа - Pavana, Gallarda"
PERFORMER "Hesperion XXI & Jordi Savall"
INDEX 01 00:00:00
FILE "14 Lluis del Milа - Fantasia VIII.wav" WAVE
TRACK 14 AUDIO
TITLE "Lluis del Milа - Fantasia VIII"
PERFORMER "Hesperion XXI & Jordi Savall"
INDEX 01 00:00:00
FILE "15 Orlando di Lasso - Jam lucis orto sidere.wav" WAVE
TRACK 15 AUDIO
TITLE "Orlando di Lasso - Jam lucis orto sidere"
PERFORMER "Hesperion XXI & Jordi Savall"
INDEX 01 00:00:00
FILE "16 S. Aguilera de Heredia - Ensalada.wav" WAVE
TRACK 16 AUDIO
TITLE "S. Aguilera de Heredia - Ensalada"
PERFORMER "Hesperion XXI & Jordi Savall"
INDEX 01 00:00:00
FILE "17 Antonio de Cabezуn - Himno XVI.wav" WAVE
TRACK 17 AUDIO
TITLE "Antonio de Cabezуn - Himno XVI"
PERFORMER "Hesperion XXI & Jordi Savall"
INDEX 01 00:00:00
FILE "18 F. Correa de Arrauxo - Batalla de Morales.wav" WAVE
TRACK 18 AUDIO
TITLE "F. Correa de Arrauxo - Batalla de Morales"
PERFORMER "Hesperion XXI & Jordi Savall"
INDEX 01 00:00:00
FILE "19 Orlando di Lasso - Omnes de Saba venient.wav" WAVE
TRACK 19 AUDIO
TITLE "Orlando di Lasso - Omnes de Saba venient"
PERFORMER "Hesperion XXI & Jordi Savall"
INDEX 01 00:00:00
FILE "20 S. Aguilera de Heredia - Tiento de Batalla.wav" WAVE
TRACK 20 AUDIO
TITLE "S. Aguilera de Heredia - Tiento de Batalla"
PERFORMER "Hesperion XXI & Jordi Savall"
INDEX 01 00:00:00
FILE "21 Orlando di Lasso - Alme Deus, qui cuncta tenes.wav" WAVE
TRACK 21 AUDIO
TITLE "Orlando di Lasso - Alme Deus, qui cuncta tenes"
PERFORMER "Hesperion XXI & Jordi Savall"
INDEX 01 00:00:00
FILE "22 Joan Cabanilles - Batalla Imperial.wav" WAVE
TRACK 22 AUDIO
TITLE "Joan Cabanilles - Batalla Imperial"
PERFORMER "Hesperion XXI & Jordi Savall"
INDEX 01 00:00:00

log - CD2

Exact Audio Copy V1.0 beta 3 from 29. August 2011
EAC extraction logfile from 19. April 2014, 13:07
Hesperion XXI & Jordi Savall / Ministriles Reales - II. Fantasias, Diferencias y Batallas 1530 - 1690
Used drive : Optiarc DVD+-RW AD-7230S Adapter: 0 ID: 2
Read mode : Secure
Utilize accurate stream : Yes
Defeat audio cache : Yes
Make use of C2 pointers : No
Read offset correction : 48
Overread into Lead-In and Lead-Out : No
Fill up missing offset samples with silence : Yes
Delete leading and trailing silent blocks : No
Null samples used in CRC calculations : Yes
Used interface : Native Win32 interface for Win NT & 2000
Gap handling : Appended to previous track
Used output format : User Defined Encoder
Selected bitrate : 1024 kBit/s
Quality : High
Add ID3 tag : No
Command line compressor : C:\Program Files (x86)\FLAC\flac.exe
Additional command line options : -8 -V -T "ARTIST=%artist%" -T "TITLE=%title%" -T "ALBUM=%albumtitle%" -T "DATE=%year%" -T "TRACKNUMBER=%tracknr%" -T "GENRE=%genre%" -T "PERFORMER=%albuminterpret%" -T "COMPOSER=%composer%" %haslyrics%--tag-from-file=LYRICS="%lyricsfile%"%haslyrics% -T "ALBUMARTIST=%albumartist%" -T "DISCNUMBER=%cdnumber%" -T "TOTALDISCS=%totalcds%" -T "TOTALTRACKS=%numtracks%" -T "COMMENT=%comment%" %source% -o %dest%
TOC of the extracted CD
Track | Start | Length | Start sector | End sector
---------------------------------------------------------
1 | 0:00.00 | 2:32.09 | 0 | 11408
2 | 2:32.09 | 1:57.23 | 11409 | 20206
3 | 4:29.32 | 2:07.54 | 20207 | 29785
4 | 6:37.11 | 2:19.56 | 29786 | 40266
5 | 8:56.67 | 2:08.73 | 40267 | 49939
6 | 11:05.65 | 2:02.70 | 49940 | 59159
7 | 13:08.60 | 4:29.35 | 59160 | 79369
8 | 17:38.20 | 2:59.35 | 79370 | 92829
9 | 20:37.55 | 2:22.69 | 92830 | 103548
10 | 23:00.49 | 1:55.63 | 103549 | 112236
11 | 24:56.37 | 3:26.62 | 112237 | 127748
12 | 28:23.24 | 4:27.45 | 127749 | 147818
13 | 32:50.69 | 4:22.13 | 147819 | 167481
14 | 37:13.07 | 2:29.56 | 167482 | 178712
15 | 39:42.63 | 1:28.65 | 178713 | 185377
16 | 41:11.53 | 5:24.60 | 185378 | 209737
17 | 46:36.38 | 2:09.41 | 209738 | 219453
18 | 48:46.04 | 5:25.65 | 219454 | 243893
19 | 54:11.69 | 1:58.72 | 243894 | 252815
20 | 56:10.66 | 3:50.34 | 252816 | 270099
21 | 60:01.25 | 2:31.18 | 270100 | 281442
22 | 62:32.43 | 5:22.32 | 281443 | 305624
Track 1
Filename E:\[AddWhatCD\Ministriles Reales - Savall - f\d2\01 Juan del Enzina - Mortal tristura me dieron (villancico).wav
Pre-gap length 0:00:02.00
Peak level 56.2 %
Extraction speed 2.3 X
Track quality 100.0 %
Test CRC AF0B1E9A
Copy CRC AF0B1E9A
Accurately ripped (confidence 12) [F0C15B0F] (AR v2)
Copy OK
Track 2
Filename E:\[AddWhatCD\Ministriles Reales - Savall - f\d2\02 Anónimo - Diferencias sobre las vacas.wav
Peak level 62.4 %
Extraction speed 2.3 X
Track quality 100.0 %
Test CRC 0F8D257A
Copy CRC 0F8D257A
Accurately ripped (confidence 12) [E2E45C3A] (AR v2)
Copy OK
Track 3
Filename E:\[AddWhatCD\Ministriles Reales - Savall - f\d2\03 Clement Janequin - Pavana 'La Battaglia' per sonar.wav
Peak level 77.0 %
Extraction speed 2.4 X
Track quality 100.0 %
Test CRC 977D1123
Copy CRC 977D1123
Accurately ripped (confidence 12) [C27C134C] (AR v2)
Copy OK
Track 4
Filename E:\[AddWhatCD\Ministriles Reales - Savall - f\d2\04 Pedro Guerrero - La Moresca.wav
Peak level 74.5 %
Extraction speed 2.2 X
Track quality 99.9 %
Test CRC 944F4C70
Copy CRC 944F4C70
Accurately ripped (confidence 12) [E7525E10] (AR v2)
Copy OK
Track 5
Filename E:\[AddWhatCD\Ministriles Reales - Savall - f\d2\05 Diego Ortiz - Passamezzo Moderno III, 1553.wav
Peak level 30.9 %
Extraction speed 2.7 X
Track quality 100.0 %
Test CRC EC1A2595
Copy CRC EC1A2595
Accurately ripped (confidence 12) [00A549C5] (AR v2)
Copy OK
Track 6
Filename E:\[AddWhatCD\Ministriles Reales - Savall - f\d2\06 Diego Ortiz - Romanesca VII.wav
Peak level 35.9 %
Extraction speed 2.8 X
Track quality 100.0 %
Test CRC 3767D232
Copy CRC 3767D232
Accurately ripped (confidence 12) [5C4DFE29] (AR v2)
Copy OK
Track 7
Filename E:\[AddWhatCD\Ministriles Reales - Savall - f\d2\07 Antonio de Cabezón - Tiento III Primer tono.wav
Peak level 45.1 %
Extraction speed 3.3 X
Track quality 100.0 %
Test CRC 9FA99962
Copy CRC 9FA99962
Accurately ripped (confidence 12) [7D43F71B] (AR v2)
Copy OK
Track 8
Filename E:\[AddWhatCD\Ministriles Reales - Savall - f\d2\08 Francisco Guerrero - Glosas sobre 'Hermosa Catalina'.wav
Peak level 35.9 %
Extraction speed 3.4 X
Track quality 100.0 %
Test CRC 4E8DB6A2
Copy CRC 4E8DB6A2
Accurately ripped (confidence 12) [194D66FF] (AR v2)
Copy OK
Track 9
Filename E:\[AddWhatCD\Ministriles Reales - Savall - f\d2\09 Román - O voy.wav
Peak level 76.9 %
Extraction speed 3.3 X
Track quality 100.0 %
Test CRC 4BEC3984
Copy CRC 4BEC3984
Accurately ripped (confidence 12) [C9CF8913] (AR v2)
Copy OK
Track 10
Filename E:\[AddWhatCD\Ministriles Reales - Savall - f\d2\10 Anónimo - Buelbe tus claros ojos (villancico).wav
Peak level 77.1 %
Extraction speed 2.6 X
Track quality 99.9 %
Test CRC 8BC2EEAD
Copy CRC 8BC2EEAD
Accurately ripped (confidence 12) [0902110D] (AR v2)
Copy OK
Track 11
Filename E:\[AddWhatCD\Ministriles Reales - Savall - f\d2\11 Antonio de Cabezón - Diferencias sobre 'La Dama le demanda'.wav
Peak level 50.7 %
Extraction speed 3.2 X
Track quality 99.9 %
Test CRC A4DC29F6
Copy CRC A4DC29F6
Accurately ripped (confidence 12) [A6BACC17] (AR v2)
Copy OK
Track 12
Filename E:\[AddWhatCD\Ministriles Reales - Savall - f\d2\12 H. de Cabezon - 'Susana un jur' (Glosa).wav
Peak level 61.9 %
Extraction speed 3.6 X
Track quality 99.9 %
Test CRC 6A877C94
Copy CRC 6A877C94
Accurately ripped (confidence 12) [7F84E30B] (AR v2)
Copy OK
Track 13
Filename E:\[AddWhatCD\Ministriles Reales - Savall - f\d2\13 Lluis del Milà - Pavana, Gallarda.wav
Peak level 77.1 %
Extraction speed 4.2 X
Track quality 100.0 %
Test CRC 9CBB6C71
Copy CRC 9CBB6C71
Accurately ripped (confidence 12) [75879CA8] (AR v2)
Copy OK
Track 14
Filename E:\[AddWhatCD\Ministriles Reales - Savall - f\d2\14 Lluis del Milà - Fantasia VIII.wav
Peak level 47.1 %
Extraction speed 3.3 X
Track quality 99.9 %
Test CRC 5C51FE1E
Copy CRC 5C51FE1E
Accurately ripped (confidence 12) [7D3036C9] (AR v2)
Copy OK
Track 15
Filename E:\[AddWhatCD\Ministriles Reales - Savall - f\d2\15 Orlando di Lasso - Jam lucis orto sidere.wav
Peak level 37.6 %
Extraction speed 3.4 X
Track quality 100.0 %
Test CRC 0E0D825F
Copy CRC 0E0D825F
Accurately ripped (confidence 12) [3790F641] (AR v2)
Copy OK
Track 16
Filename E:\[AddWhatCD\Ministriles Reales - Savall - f\d2\16 S. Aguilera de Heredia - Ensalada.wav
Peak level 48.7 %
Extraction speed 4.7 X
Track quality 100.0 %
Test CRC 85455BE0
Copy CRC 85455BE0
Accurately ripped (confidence 12) [1B667B1E] (AR v2)
Copy OK
Track 17
Filename E:\[AddWhatCD\Ministriles Reales - Savall - f\d2\17 Antonio de Cabezón - Himno XVI.wav
Peak level 46.6 %
Extraction speed 4.2 X
Track quality 100.0 %
Test CRC FFCE265D
Copy CRC FFCE265D
Accurately ripped (confidence 12) [2142B71E] (AR v2)
Copy OK
Track 18
Filename E:\[AddWhatCD\Ministriles Reales - Savall - f\d2\18 F. Correa de Arrauxo - Batalla de Morales.wav
Peak level 72.6 %
Extraction speed 4.9 X
Track quality 100.0 %
Test CRC BFE77FDA
Copy CRC BFE77FDA
Accurately ripped (confidence 12) [AC47D967] (AR v2)
Copy OK
Track 19
Filename E:\[AddWhatCD\Ministriles Reales - Savall - f\d2\19 Orlando di Lasso - Omnes de Saba venient.wav
Peak level 59.3 %
Extraction speed 4.3 X
Track quality 100.0 %
Test CRC 77076E47
Copy CRC 77076E47
Accurately ripped (confidence 12) [0BA35CAD] (AR v2)
Copy OK
Track 20
Filename E:\[AddWhatCD\Ministriles Reales - Savall - f\d2\20 S. Aguilera de Heredia - Tiento de Batalla.wav
Peak level 67.8 %
Extraction speed 5.0 X
Track quality 100.0 %
Test CRC 2D3593A1
Copy CRC 2D3593A1
Accurately ripped (confidence 12) [D702AFFB] (AR v2)
Copy OK
Track 21
Filename E:\[AddWhatCD\Ministriles Reales - Savall - f\d2\21 Orlando di Lasso - Alme Deus, qui cuncta tenes.wav
Peak level 53.7 %
Extraction speed 4.6 X
Track quality 100.0 %
Test CRC 2D06063C
Copy CRC 2D06063C
Accurately ripped (confidence 12) [E4E24DA6] (AR v2)
Copy OK
Track 22
Filename E:\[AddWhatCD\Ministriles Reales - Savall - f\d2\22 Joan Cabanilles - Batalla Imperial.wav
Peak level 57.2 %
Extraction speed 5.4 X
Track quality 100.0 %
Test CRC 3B2E1140
Copy CRC 3B2E1140
Accurately ripped (confidence 12) [A4937652] (AR v2)
Copy OK
All tracks accurately ripped
No errors occurred
End of status report
---- CUETools DB Plugin V2.1.3
[CTDB TOCID: F1b6NpEuw7.zHEksXaDliqWQv1k-] found, Submit result: F1b6NpEuw7.zHEksXaDliqWQv1k- has been confirmed
[ef091f91] (14/15) Accurately ripped
[ca518e31] (01/15) No match
==== Log checksum 11AD96791BE7D327019C009997BD11946C99D8204FAE018F3564DE0024AA84EC ====



Показать сообщения:    

Текущее время: 05-Дек 15:33

Часовой пояс: UTC + 3


Вы не можете начинать темы
Вы не можете отвечать на сообщения
Вы не можете редактировать свои сообщения
Вы не можете удалять свои сообщения
Вы не можете голосовать в опросах
Вы не можете прикреплять файлы к сообщениям
Вы не можете скачивать файлы