(Classical) Claude Debussy · Panorama: String Quartet, Syrinx, Estampes, La Mer, Nocturnes, etc. (С. Рихтер, H. von Karajan, B. Michelangeli, М. Ростропович, B. Britten, C. Abbado, etc.) · 2000, FLAC (tracks+.cue) lossless


 

[Цитировать]

Claude Debussy
Panorama

Жанр: classical
Страна-производитель диска: ФРГ
Год издания диска: 2000
Издатель: Deutsche Grammophon
Номер по каталогу: 469 1302 4 GP 2
Даты записи различные
Аудиокодек: FLAC
Тип рипа: tracks+.cue
Битрейт аудио: lossless
Продолжительность: 02:35:51
Источник: what.cd
Сканы оформления в раздаче присутствуют
Исполнители указаны к каждому произведению

cd 1

01. Prélude à l’Après-midi d’un Faune, L 86 (9:41)
Boston Symphony Orchestra, Michael Tilson Thomas
String Quartet in G Minor, op. 10
02. I. Animé et très décidé (6:21)
03. II. Assez vif et bien rythmé (3:56)
04. III. Andantino (7:15)
05. IV. Très modéré – Très mouvementé et avec passion (7:11)
Melos Quartett
06. Syrinx (2:47)
Doriot Anthony Dwyer
Estampes, L 100
07. I. Pagodes. Modérément animé (6:10)
08. II. La Soirée dans Grenade. Mouvement de habanera (5:26)
09. III. Jardins sous la pluie. Net et vif (3:21)
Sviatoslav Richter
La Mer, L 109
10. I. De l’aube à midi sur la mer. Très lent (8:35)
11. II. Jeux de vagues. Allegro (6:12)
12. III. Dialogue du vent et de la mer. Animé et tumultueux (7:55)
Berlin Philharmonic Orchestra, Herbert Von Karajan

Лог создания рипа

X Lossless Decoder version 20120226 (139.1)
XLD extraction logfile from 2012-03-31 15:58:00 +0200
Claude Debussy / Claude Debussy Panorama [CD1]
Used drive : MATSHITA DVD-R UJ-898 (revision HA07)
Ripper mode : XLD Secure Ripper
Disable audio cache : OK for the drive with a cache less than 1375KiB
Make use of C2 pointers : NO
Read offset correction : 102
Max retry count : 100
Gap status : Analyzed, Appended
TOC of the extracted CD
Track | Start | Length | Start sector | End sector
---------------------------------------------------------
1 | 00:00:00 | 09:41:09 | 0 | 43583
2 | 09:41:09 | 06:21:03 | 43584 | 72161
3 | 16:02:12 | 03:56:09 | 72162 | 89870
4 | 19:58:21 | 07:14:66 | 89871 | 122486
5 | 27:13:12 | 07:10:52 | 122487 | 154788
6 | 34:23:64 | 02:46:54 | 154789 | 167292
7 | 37:10:43 | 06:09:47 | 167293 | 195014
8 | 43:20:15 | 05:26:00 | 195015 | 219464
9 | 48:46:15 | 03:21:04 | 219465 | 234543
10 | 52:07:19 | 08:35:14 | 234544 | 273182
11 | 60:42:33 | 06:12:28 | 273183 | 301110
12 | 66:54:61 | 07:55:12 | 301111 | 336747
List of alternate offset correction values
# | Absolute | Relative | Confidence
------------------------------------------
1 | 98 | -4 | 2
AccurateRip Summary
Track 01 : OK (AR2, confidence 2)
Track 02 : OK (AR2, confidence 2)
Track 03 : OK (AR2, confidence 2)
Track 04 : OK (AR2, confidence 2)
Track 05 : OK (AR2, confidence 2)
Track 06 : OK (AR2, confidence 2)
Track 07 : OK (AR2, confidence 2)
Track 08 : OK (AR2, confidence 2)
Track 09 : OK (AR2, confidence 2)
Track 10 : OK (AR2, confidence 2)
Track 11 : OK (AR2, confidence 2)
Track 12 : OK (AR2, confidence 2)
->All tracks accurately ripped.
All Tracks
Album gain : 0.98 dB
Peak : 0.997803
Statistics
Read error : 0
Jitter error (maybe fixed) : 0
Retry sector count : 0
Damaged sector count : 0
Track 01
Filename : /Volumes/MUSIC/T/Claude Debussy Panorama/CD1/01 - Claude Debussy - Prélude À L'Après-Midi D'Un Faune, L 86.flac
Pre-gap length : 00:02:00
Track gain : 0.62 dB
Peak : 0.778412
CRC32 hash (test run) : 56302590
CRC32 hash : 56302590
CRC32 hash (skip zero) : 8625DB2B
AccurateRip signature : 7F81D68F
->Accurately ripped! (AR2, confidence 2)
Statistics
Read error : 0
Jitter error (maybe fixed) : 0
Retry sector count : 0
Damaged sector count : 0
Track 02
Filename : /Volumes/MUSIC/T/Claude Debussy Panorama/CD1/02 - Claude Debussy - String Quartet In G Minor, Op.10 - I. Animé Et Très Décidé.flac
Pre-gap length : 00:06:64
Track gain : 2.98 dB
Peak : 0.533844
CRC32 hash (test run) : C81BB8A2
CRC32 hash : C81BB8A2
CRC32 hash (skip zero) : AF4F1FFB
AccurateRip signature : C37884FC
->Accurately ripped! (AR2, confidence 2)
Statistics
Read error : 0
Jitter error (maybe fixed) : 0
Retry sector count : 0
Damaged sector count : 0
Track 03
Filename : /Volumes/MUSIC/T/Claude Debussy Panorama/CD1/03 - Claude Debussy - String Quartet In G Minor, Op.10 - II. Assez Vif Et Bien Rythmé.flac
Pre-gap length : 00:02:27
Track gain : 7.27 dB
Peak : 0.370056
CRC32 hash (test run) : 12F585B6
CRC32 hash : 12F585B6
CRC32 hash (skip zero) : A0536840
AccurateRip signature : 5F0F2DA4
->Accurately ripped! (AR2, confidence 2)
Statistics
Read error : 0
Jitter error (maybe fixed) : 0
Retry sector count : 0
Damaged sector count : 0
Track 04
Filename : /Volumes/MUSIC/T/Claude Debussy Panorama/CD1/04 - Claude Debussy - String Quartet In G Minor, Op.10 - III. Andantino.flac
Pre-gap length : 00:03:16
Track gain : 7.94 dB
Peak : 0.420715
CRC32 hash (test run) : C0E3E9DE
CRC32 hash : C0E3E9DE
CRC32 hash (skip zero) : 50347618
AccurateRip signature : CFF3872B
->Accurately ripped! (AR2, confidence 2)
Statistics
Read error : 0
Jitter error (maybe fixed) : 0
Retry sector count : 0
Damaged sector count : 0
Track 05
Filename : /Volumes/MUSIC/T/Claude Debussy Panorama/CD1/05 - Claude Debussy - String Quartet In G Minor, Op.10 - IV. Très Modéré, Très Animé.flac
Pre-gap length : 00:03:57
Track gain : 2.90 dB
Peak : 0.566132
CRC32 hash (test run) : A0051236
CRC32 hash : A0051236
CRC32 hash (skip zero) : 5BD0DBE4
AccurateRip signature : 68D52C1B
->Accurately ripped! (AR2, confidence 2)
Statistics
Read error : 0
Jitter error (maybe fixed) : 0
Retry sector count : 0
Damaged sector count : 0
Track 06
Filename : /Volumes/MUSIC/T/Claude Debussy Panorama/CD1/06 - Claude Debussy - Syrinx.flac
Pre-gap length : 00:05:31
Track gain : 10.17 dB
Peak : 0.196655
CRC32 hash (test run) : 1392F70F
CRC32 hash : 1392F70F
CRC32 hash (skip zero) : 1A543A45
AccurateRip signature : AF590FEA
->Accurately ripped! (AR2, confidence 2)
Statistics
Read error : 0
Jitter error (maybe fixed) : 0
Retry sector count : 0
Damaged sector count : 0
Track 07
Filename : /Volumes/MUSIC/T/Claude Debussy Panorama/CD1/07 - Claude Debussy - Estampes, L 100 - I. Pagodes. Modérément Animé.flac
Pre-gap length : 00:05:31
Track gain : 2.57 dB
Peak : 0.608734
CRC32 hash (test run) : 17524DCA
CRC32 hash : 17524DCA
CRC32 hash (skip zero) : 9EC1A328
AccurateRip signature : 02323EFA
->Accurately ripped! (AR2, confidence 2)
Statistics
Read error : 0
Jitter error (maybe fixed) : 0
Retry sector count : 0
Damaged sector count : 0
Track 08
Filename : /Volumes/MUSIC/T/Claude Debussy Panorama/CD1/08 - Claude Debussy - Estampes, L 100 - II. La Soirée Dans Grenade. Mouvement de Habanera.flac
Track gain : 5.58 dB
Peak : 0.621094
CRC32 hash (test run) : 529B318B
CRC32 hash : 529B318B
CRC32 hash (skip zero) : 957860D1
AccurateRip signature : 9F46E39F
->Accurately ripped! (AR2, confidence 2)
Statistics
Read error : 0
Jitter error (maybe fixed) : 0
Retry sector count : 0
Damaged sector count : 0
Track 09
Filename : /Volumes/MUSIC/T/Claude Debussy Panorama/CD1/09 - Claude Debussy - Estampes, L 100 - III. Jardins Sous La Pluie. Net Et Vif.flac
Pre-gap length : 00:01:35
Track gain : 0.70 dB
Peak : 0.600861
CRC32 hash (test run) : 24D54994
CRC32 hash : 24D54994
CRC32 hash (skip zero) : 1869B4E6
AccurateRip signature : E736ACC2
->Accurately ripped! (AR2, confidence 2)
Statistics
Read error : 0
Jitter error (maybe fixed) : 0
Retry sector count : 0
Damaged sector count : 0
Track 10
Filename : /Volumes/MUSIC/T/Claude Debussy Panorama/CD1/10 - Claude Debussy - La Mer, L 109 - I. De L'aube À Midi Sur La Mer. Très Lent.flac
Pre-gap length : 00:05:70
Track gain : -0.79 dB
Peak : 0.985779
CRC32 hash (test run) : 96D8266B
CRC32 hash : 96D8266B
CRC32 hash (skip zero) : D524CEA7
AccurateRip signature : 6100E4B7
->Accurately ripped! (AR2, confidence 2)
Statistics
Read error : 0
Jitter error (maybe fixed) : 0
Retry sector count : 0
Damaged sector count : 0
Track 11
Filename : /Volumes/MUSIC/T/Claude Debussy Panorama/CD1/11 - Claude Debussy - La Mer, L 109 - II. Jeux De Vagues. Allegro.flac
Pre-gap length : 00:03:54
Track gain : -0.52 dB
Peak : 0.934082
CRC32 hash (test run) : 4AF81998
CRC32 hash : 4AF81998
CRC32 hash (skip zero) : C4451282
AccurateRip signature : 3DB2AE10
->Accurately ripped! (AR2, confidence 2)
Statistics
Read error : 0
Jitter error (maybe fixed) : 0
Retry sector count : 0
Damaged sector count : 0
Track 12
Filename : /Volumes/MUSIC/T/Claude Debussy Panorama/CD1/12 - Claude Debussy - La Mer, L 109 - III. Dialogue Du Vent Et De La Mer. Animé Et Tumultueux.flac
Pre-gap length : 00:02:73
Track gain : -3.84 dB
Peak : 0.997803
CRC32 hash (test run) : 751F570A
CRC32 hash : 751F570A
CRC32 hash (skip zero) : 9DFC0077
AccurateRip signature : A75D26A2
->Accurately ripped! (AR2, confidence 2)
Statistics
Read error : 0
Jitter error (maybe fixed) : 0
Retry sector count : 0
Damaged sector count : 0
No errors occurred
End of status report

Содержание индексной карты (.CUE)

TITLE "Claude Debussy panorama"
PERFORMER "VA"
CATALOG 0028946913123
REM DATE "2000"
REM DISCNUMBER 1
REM DISCID 9711890C
REM REPLAYGAIN_ALBUM_GAIN 0.98 dB
REM REPLAYGAIN_ALBUM_PEAK 0.997803
FILE "01. Prélude à l’Après-midi d’un Faune.wav" WAVE
TRACK 01 AUDIO
TITLE "Prélude à l’Après-midi d’un Faune"
PERFORMER "Boston Symphony Orchestra, Michael Tilson Thomas"
ISRC DEF057102070
REM REPLAYGAIN_TRACK_GAIN 0.62 dB
REM REPLAYGAIN_TRACK_PEAK 0.778412
INDEX 01 00:00:00
TRACK 02 AUDIO
TITLE "String Quartet in G Minor, op. 10 · I. Animé et très décidé"
PERFORMER "Melos Quartett"
ISRC DEF057900792
REM REPLAYGAIN_TRACK_GAIN 2.98 dB
REM REPLAYGAIN_TRACK_PEAK 0.533844
INDEX 00 09:34:20
FILE "02. String Quartet in G Minor, op. 10 · I. Animé et très décidé.wav" WAVE
INDEX 01 00:00:00
TRACK 03 AUDIO
TITLE "String Quartet in G Minor, op. 10 · II. Assez vif et bien rythmé"
PERFORMER "Melos Quartett"
ISRC DEF057900793
REM REPLAYGAIN_TRACK_GAIN 7.27 dB
REM REPLAYGAIN_TRACK_PEAK 0.370056
INDEX 00 06:18:51
FILE "03. String Quartet in G Minor, op. 10 · II. Assez vif et bien rythmé.wav" WAVE
INDEX 01 00:00:00
TRACK 04 AUDIO
TITLE "String Quartet in G Minor, op. 10 · III. Andantino"
PERFORMER "Melos Quartett"
ISRC DEF057900791
REM REPLAYGAIN_TRACK_GAIN 7.94 dB
REM REPLAYGAIN_TRACK_PEAK 0.420715
INDEX 00 03:52:68
FILE "04. String Quartet in G Minor, op. 10 · III. Andantino.wav" WAVE
INDEX 01 00:00:00
TRACK 05 AUDIO
TITLE "String Quartet in G Minor, op. 10 · IV. Très modéré – Très mouvementé et avec passion"
PERFORMER "Melos Quartett"
ISRC DEF057900794
REM REPLAYGAIN_TRACK_GAIN 2.90 dB
REM REPLAYGAIN_TRACK_PEAK 0.566132
INDEX 00 07:11:09
FILE "05. String Quartet in G Minor, op. 10 · IV. Très modéré....wav" WAVE
INDEX 01 00:00:00
TRACK 06 AUDIO
TITLE "Syrinx"
PERFORMER "Doriot Anthony Dwyer"
ISRC DEF057003810
REM REPLAYGAIN_TRACK_GAIN 10.17 dB
REM REPLAYGAIN_TRACK_PEAK 0.196655
INDEX 00 07:05:21
FILE "06. Syrinx.wav" WAVE
INDEX 01 00:00:00
TRACK 07 AUDIO
TITLE "Estampes · I. Pagodes. Modérément animé"
PERFORMER "Sviatoslav Richter"
ISRC DEF056202050
REM REPLAYGAIN_TRACK_GAIN 2.57 dB
REM REPLAYGAIN_TRACK_PEAK 0.608734
INDEX 00 02:41:23
FILE "07. Estampes · I. Pagodes. Modérément animé.wav" WAVE
INDEX 01 00:00:00
FILE "08. Estampes · II. La Soirée dans Grenade....wav" WAVE
TRACK 08 AUDIO
TITLE "Estampes · II. La Soirée dans Grenade. Mouvement de habanera"
PERFORMER "Sviatoslav Richter"
ISRC DEF056202051
REM REPLAYGAIN_TRACK_GAIN 5.58 dB
REM REPLAYGAIN_TRACK_PEAK 0.621094
INDEX 01 00:00:00
TRACK 09 AUDIO
TITLE "Estampes · III. Jardins sous la pluie. Net et vif"
PERFORMER "Sviatoslav Richter"
ISRC DEF056202052
REM REPLAYGAIN_TRACK_GAIN 0.70 dB
REM REPLAYGAIN_TRACK_PEAK 0.600861
INDEX 00 05:24:40
FILE "09. Estampes · III. Jardins sous la pluie. Net et vif.wav" WAVE
INDEX 01 00:00:00
TRACK 10 AUDIO
TITLE "La Mer · I. De l’aube à midi sur la mer. Très lent"
PERFORMER "Berlin Philharmonic Orchestra, Herbert Von Karajan"
ISRC DEF056402301
REM REPLAYGAIN_TRACK_GAIN -0.79 dB
REM REPLAYGAIN_TRACK_PEAK 0.985779
INDEX 00 03:15:09
FILE "10. La Mer · I. De l’aube à midi sur la mer. Très lent.wav" WAVE
INDEX 01 00:00:00
TRACK 11 AUDIO
TITLE "La Mer · II. Jeux de vagues. Allegro"
PERFORMER "Berlin Philharmonic Orchestra, Herbert Von Karajan"
ISRC DEF056402302
REM REPLAYGAIN_TRACK_GAIN -0.52 dB
REM REPLAYGAIN_TRACK_PEAK 0.934082
INDEX 00 08:31:35
FILE "11. La Mer · II. Jeux de vagues. Allegro.wav" WAVE
INDEX 01 00:00:00
TRACK 12 AUDIO
TITLE "La Mer · III. Dialogue du vent et de la mer. Animé et tumultueux"
PERFORMER "Berlin Philharmonic Orchestra, Herbert Von Karajan"
ISRC DEF056402303
REM REPLAYGAIN_TRACK_GAIN -3.84 dB
REM REPLAYGAIN_TRACK_PEAK 0.997803
INDEX 00 06:09:30
FILE "12. La Mer · III. Dialogue du vent et de la mer....wav" WAVE
INDEX 01 00:00:00

cd 2

Préludes, 1er livre
01. I. Danseuses de Delphes. Lent et grave (3:18)
02. II. Voiles. Modéré (4:30)
03. III. Le Vent dans la plaine. Animé (2:13)
04. IV. Les Sons es les parfums tournent dans l’air du soir. Modéré (3:39)
05. V. Les Collines d’Anacapri. Très modéré (3:19)
06. VI. Des pas sur le neige. Triste et lent (4:59)
07. VII. Ce qu’a vu le vent d’ouest. Animé et tumultueux (3:42)
08. VIII. La Fille aux cheveux de lin. Très calme et doucement expressif (2:55)
09. IX. La Sérénade interrompue. Modérément animé (2:43)
10. X. La Cathédrale engloutie. Profondément calme (6:52)
11. XI. La Danse de Puck. Capricieux et léger (3:12)
12. XII. Minstrels. Modéré (2:35)
Arturo Benedetti Michelangeli
Sonata for Violoncello and Piano
13. I. Prologue. Lent (5:05)
14. II. Sérénade. Modérément animé (3:29)
15. III. Finale. Animé (3:54)
Mstislav Rostropovich, Benjamin Britten
Nocturnes (Triptyque symphonique)
16. Nuages. Modéré (7:49)
17. Fêtes. Animé et très rythmé (6:04)
18. Sirènes. Modérément animé (10:44)
Boston Symphony Orchestra, Claudio Abbado

Лог создания рипа

X Lossless Decoder version 20120226 (139.1)
XLD extraction logfile from 2012-03-31 16:59:46 +0200
Claude Debussy / Claude Debussy Panorama [CD2]
Used drive : MATSHITA DVD-R UJ-898 (revision HA07)
Ripper mode : XLD Secure Ripper
Disable audio cache : OK for the drive with a cache less than 1375KiB
Make use of C2 pointers : NO
Read offset correction : 102
Max retry count : 100
Gap status : Analyzed, Appended
TOC of the extracted CD
Track | Start | Length | Start sector | End sector
---------------------------------------------------------
1 | 00:00:00 | 03:18:34 | 0 | 14883
2 | 03:18:34 | 04:30:17 | 14884 | 35150
3 | 07:48:51 | 02:12:64 | 35151 | 45114
4 | 10:01:40 | 03:39:08 | 45115 | 61547
5 | 13:40:48 | 03:18:38 | 61548 | 76435
6 | 16:59:11 | 04:58:49 | 76436 | 98834
7 | 21:57:60 | 03:41:58 | 98835 | 115467
8 | 25:39:43 | 02:54:71 | 115468 | 128588
9 | 28:34:39 | 02:42:67 | 128589 | 140805
10 | 31:17:31 | 06:51:67 | 140806 | 171697
11 | 38:09:23 | 03:11:44 | 171698 | 186066
12 | 41:20:67 | 02:35:15 | 186067 | 197706
13 | 43:56:07 | 05:05:02 | 197707 | 220583
14 | 49:01:09 | 03:28:53 | 220584 | 236236
15 | 52:29:62 | 03:53:72 | 236237 | 253783
16 | 56:23:59 | 07:49:24 | 253784 | 288982
17 | 64:13:08 | 06:04:24 | 288983 | 316306
18 | 70:17:32 | 10:43:66 | 316307 | 364597
List of alternate offset correction values
# | Absolute | Relative | Confidence
------------------------------------------
1 | 98 | -4 | 2
AccurateRip Summary
Track 01 : OK (AR2, confidence 2)
Track 02 : OK (AR2, confidence 2)
Track 03 : OK (AR2, confidence 2)
Track 04 : OK (AR2, confidence 2)
Track 05 : OK (AR2, confidence 2)
Track 06 : OK (AR2, confidence 2)
Track 07 : OK (AR2, confidence 2)
Track 08 : OK (AR2, confidence 2)
Track 09 : OK (AR2, confidence 2)
Track 10 : OK (AR2, confidence 2)
Track 11 : OK (AR2, confidence 2)
Track 12 : OK (AR2, confidence 2)
Track 13 : OK (AR2, confidence 2)
Track 14 : OK (AR2, confidence 2)
Track 15 : OK (AR2, confidence 2)
Track 16 : OK (AR2, confidence 2)
Track 17 : OK (AR2, confidence 2)
Track 18 : OK (AR2, confidence 2)
->All tracks accurately ripped.
All Tracks
Album gain : 2.64 dB
Peak : 0.932587
Statistics
Read error : 0
Jitter error (maybe fixed) : 0
Retry sector count : 0
Damaged sector count : 0
Track 01
Filename : /Volumes/MUSIC/T/Claude Debussy Panorama/CD2/01 - Claude Debussy - Preludes, 1er livre - I. Danseuses de Delphes. Lent Et Grave.flac
Pre-gap length : 00:02:00
Track gain : 7.92 dB
Peak : 0.497253
CRC32 hash (test run) : 16B42931
CRC32 hash : 16B42931
CRC32 hash (skip zero) : D340C0FE
AccurateRip signature : E94E2F36
->Accurately ripped! (AR2, confidence 2)
Statistics
Read error : 0
Jitter error (maybe fixed) : 0
Retry sector count : 0
Damaged sector count : 0
Track 02
Filename : /Volumes/MUSIC/T/Claude Debussy Panorama/CD2/02 - Claude Debussy - Preludes, 1er livre - II. Voiles. Moderé.flac
Track gain : 10.32 dB
Peak : 0.433594
CRC32 hash (test run) : C7BDEB0E
CRC32 hash : C7BDEB0E
CRC32 hash (skip zero) : 777B38A7
AccurateRip signature : 9979DC37
->Accurately ripped! (AR2, confidence 2)
Statistics
Read error : 0
Jitter error (maybe fixed) : 0
Retry sector count : 0
Damaged sector count : 0
Track 03
Filename : /Volumes/MUSIC/T/Claude Debussy Panorama/CD2/03 - Claude Debussy - Preludes, 1er livre - III. Le Vent Dans La Plaine. Animé.flac
Track gain : 5.12 dB
Peak : 0.481445
CRC32 hash (test run) : 7CDD70C0
CRC32 hash : 7CDD70C0
CRC32 hash (skip zero) : 59A023E1
AccurateRip signature : F2E66D5E
->Accurately ripped! (AR2, confidence 2)
Statistics
Read error : 0
Jitter error (maybe fixed) : 0
Retry sector count : 0
Damaged sector count : 0
Track 04
Filename : /Volumes/MUSIC/T/Claude Debussy Panorama/CD2/04 - Claude Debussy - Preludes, 1er livre - IV. Les Sons Es Les Parfums Tournent Dans L'Air Du Soir. Moderé.flac
Track gain : 8.74 dB
Peak : 0.340820
CRC32 hash (test run) : 6256F573
CRC32 hash : 6256F573
CRC32 hash (skip zero) : 76171E50
AccurateRip signature : 61D4B17F
->Accurately ripped! (AR2, confidence 2)
Statistics
Read error : 0
Jitter error (maybe fixed) : 0
Retry sector count : 0
Damaged sector count : 0
Track 05
Filename : /Volumes/MUSIC/T/Claude Debussy Panorama/CD2/05 - Claude Debussy - Preludes, 1er livre - V. Les Collines D'Anacapri. Tres Moderé.flac
Track gain : 2.99 dB
Peak : 0.571167
CRC32 hash (test run) : 340AF0B3
CRC32 hash : 340AF0B3
CRC32 hash (skip zero) : ED753866
AccurateRip signature : 3F25DE71
->Accurately ripped! (AR2, confidence 2)
Statistics
Read error : 0
Jitter error (maybe fixed) : 0
Retry sector count : 0
Damaged sector count : 0
Track 06
Filename : /Volumes/MUSIC/T/Claude Debussy Panorama/CD2/06 - Claude Debussy - Preludes, 1er livre - VI. Des Pas Sur Le Neige. Triste Et Lent.flac
Track gain : 16.13 dB
Peak : 0.209564
CRC32 hash (test run) : 85121A5E
CRC32 hash : 85121A5E
CRC32 hash (skip zero) : E5308B14
AccurateRip signature : 54191F80
->Accurately ripped! (AR2, confidence 2)
Statistics
Read error : 0
Jitter error (maybe fixed) : 0
Retry sector count : 0
Damaged sector count : 0
Track 07
Filename : /Volumes/MUSIC/T/Claude Debussy Panorama/CD2/07 - Claude Debussy - Preludes, 1er livre - VII. Ce Qu'A Vu Le Vent D'Ouest. Animé Et Tumultueux.flac
Track gain : -0.05 dB
Peak : 0.572296
CRC32 hash (test run) : 9DBB7B3B
CRC32 hash : 9DBB7B3B
CRC32 hash (skip zero) : 42300162
AccurateRip signature : 4FF65ED1
->Accurately ripped! (AR2, confidence 2)
Statistics
Read error : 0
Jitter error (maybe fixed) : 0
Retry sector count : 0
Damaged sector count : 0
Track 08
Filename : /Volumes/MUSIC/T/Claude Debussy Panorama/CD2/08 - Claude Debussy - Preludes, 1er livre - VIII. La Fille Aux Cheveux De Lin. Très Calme Et Doucement Expressif.flac
Track gain : 10.30 dB
Peak : 0.458435
CRC32 hash (test run) : F6EE1C76
CRC32 hash : F6EE1C76
CRC32 hash (skip zero) : D5549989
AccurateRip signature : 4419E015
->Accurately ripped! (AR2, confidence 2)
Statistics
Read error : 0
Jitter error (maybe fixed) : 0
Retry sector count : 0
Damaged sector count : 0
Track 09
Filename : /Volumes/MUSIC/T/Claude Debussy Panorama/CD2/09 - Claude Debussy - Preludes, 1er livre - IX. La Sérénade Interrompue. Moderement Animé.flac
Track gain : 6.90 dB
Peak : 0.455536
CRC32 hash (test run) : 5F6F5A9E
CRC32 hash : 5F6F5A9E
CRC32 hash (skip zero) : 2911051E
AccurateRip signature : 5DD3BAEA
->Accurately ripped! (AR2, confidence 2)
Statistics
Read error : 0
Jitter error (maybe fixed) : 0
Retry sector count : 0
Damaged sector count : 0
Track 10
Filename : /Volumes/MUSIC/T/Claude Debussy Panorama/CD2/10 - Claude Debussy - Preludes, 1er livre - X. La Cathédrale Engloutie. Profondemt Calme.flac
Track gain : 2.13 dB
Peak : 0.606262
CRC32 hash (test run) : DCDA1918
CRC32 hash : DCDA1918
CRC32 hash (skip zero) : E3AA9BF8
AccurateRip signature : 3E20CA90
->Accurately ripped! (AR2, confidence 2)
Statistics
Read error : 0
Jitter error (maybe fixed) : 0
Retry sector count : 0
Damaged sector count : 0
Track 11
Filename : /Volumes/MUSIC/T/Claude Debussy Panorama/CD2/11 - Claude Debussy - Preludes, 1er livre - XI. La Danse De Puck. Capricieux Et Leger.flac
Track gain : 5.27 dB
Peak : 0.432434
CRC32 hash (test run) : 8D567409
CRC32 hash : 8D567409
CRC32 hash (skip zero) : BBFCF7CE
AccurateRip signature : CB36CFA7
->Accurately ripped! (AR2, confidence 2)
Statistics
Read error : 0
Jitter error (maybe fixed) : 0
Retry sector count : 0
Damaged sector count : 0
Track 12
Filename : /Volumes/MUSIC/T/Claude Debussy Panorama/CD2/12 - Claude Debussy - Preludes, 1er livre - XII. Minstrels. Moderé.flac
Track gain : 3.28 dB
Peak : 0.552185
CRC32 hash (test run) : 319F79D9
CRC32 hash : 319F79D9
CRC32 hash (skip zero) : 26822937
AccurateRip signature : EC7E72F2
->Accurately ripped! (AR2, confidence 2)
Statistics
Read error : 0
Jitter error (maybe fixed) : 0
Retry sector count : 0
Damaged sector count : 0
Track 13
Filename : /Volumes/MUSIC/T/Claude Debussy Panorama/CD2/13 - Claude Debussy - Sonata For Violoncello And Piano - I. Prologue. Lent.flac
Pre-gap length : 00:03:41
Track gain : 4.25 dB
Peak : 0.513062
CRC32 hash (test run) : 24C26159
CRC32 hash : 24C26159
CRC32 hash (skip zero) : DD26A840
AccurateRip signature : D4B0E679
->Accurately ripped! (AR2, confidence 2)
Statistics
Read error : 0
Jitter error (maybe fixed) : 0
Retry sector count : 0
Damaged sector count : 0
Track 14
Filename : /Volumes/MUSIC/T/Claude Debussy Panorama/CD2/14 - Claude Debussy - Sonata For Violoncello And Piano - II. Serenade. Moderement Animé.flac
Track gain : 4.86 dB
Peak : 0.534027
CRC32 hash (test run) : 6236926D
CRC32 hash : 6236926D
CRC32 hash (skip zero) : 99BEFE2B
AccurateRip signature : BA4C1F7D
->Accurately ripped! (AR2, confidence 2)
Statistics
Read error : 0
Jitter error (maybe fixed) : 0
Retry sector count : 0
Damaged sector count : 0
Track 15
Filename : /Volumes/MUSIC/T/Claude Debussy Panorama/CD2/15 - Claude Debussy - Sonata For Violoncello And Piano - III. Finale. Animé.flac
Track gain : 1.24 dB
Peak : 0.619690
CRC32 hash (test run) : F90EF743
CRC32 hash : F90EF743
CRC32 hash (skip zero) : BD14B326
AccurateRip signature : DC99D211
->Accurately ripped! (AR2, confidence 2)
Statistics
Read error : 0
Jitter error (maybe fixed) : 0
Retry sector count : 0
Damaged sector count : 0
Track 16
Filename : /Volumes/MUSIC/T/Claude Debussy Panorama/CD2/16 - Claude Debussy - Nocturnes (Triptyque symphonique) - Nuages. Moderé.flac
Pre-gap length : 00:04:38
Track gain : 9.49 dB
Peak : 0.786438
CRC32 hash (test run) : A0964547
CRC32 hash : A0964547
CRC32 hash (skip zero) : 20D96502
AccurateRip signature : 5F4B147D
->Accurately ripped! (AR2, confidence 2)
Statistics
Read error : 0
Jitter error (maybe fixed) : 0
Retry sector count : 0
Damaged sector count : 0
Track 17
Filename : /Volumes/MUSIC/T/Claude Debussy Panorama/CD2/17 - Claude Debussy - Nocturnes (Triptyque symphonique) - Fetes. Animé Et Très Rythmé.flac
Track gain : -0.79 dB
Peak : 0.836395
CRC32 hash (test run) : 8B6DF63F
CRC32 hash : 8B6DF63F
CRC32 hash (skip zero) : 2332AA7A
AccurateRip signature : 9A3DB624
->Accurately ripped! (AR2, confidence 2)
Statistics
Read error : 0
Jitter error (maybe fixed) : 0
Retry sector count : 0
Damaged sector count : 0
Track 18
Filename : /Volumes/MUSIC/T/Claude Debussy Panorama/CD2/18 - Claude Debussy - Nocturnes (Triptyque symphonique) - Sirens. Moderement Animé.flac
Track gain : -0.61 dB
Peak : 0.932587
CRC32 hash (test run) : D809A213
CRC32 hash : D809A213
CRC32 hash (skip zero) : 2F729D6F
AccurateRip signature : 8653FDD7
->Accurately ripped! (AR2, confidence 2)
Statistics
Read error : 0
Jitter error (maybe fixed) : 0
Retry sector count : 0
Damaged sector count : 0
No errors occurred
End of status report

Содержание индексной карты (.CUE)

TITLE "Claude Debussy panorama"
PERFORMER "VA"
CATALOG 0028946913222
REM DATE "2000"
REM DISCNUMBER 2
REM DISCID EE12FD12
REM REPLAYGAIN_ALBUM_GAIN 2.64 dB
REM REPLAYGAIN_ALBUM_PEAK 0.932587
FILE "01. Préludes, 1er livre · I. Danseuses de Delphes....wav" WAVE
TRACK 01 AUDIO
TITLE "Préludes, 1er livre · I. Danseuses de Delphes. Lent et grave"
PERFORMER "Arturo Benedetti Michelangeli"
ISRC DEF057800610
REM REPLAYGAIN_TRACK_GAIN 7.92 dB
REM REPLAYGAIN_TRACK_PEAK 0.497253
INDEX 01 00:00:00
FILE "02. Préludes, 1er livre · II. Voiles. Modéré.wav" WAVE
TRACK 02 AUDIO
TITLE "Préludes, 1er livre · II. Voiles. Modéré"
PERFORMER "Arturo Benedetti Michelangeli"
ISRC DEF057800500
REM REPLAYGAIN_TRACK_GAIN 10.32 dB
REM REPLAYGAIN_TRACK_PEAK 0.433594
INDEX 01 00:00:00
FILE "03. Préludes, 1er livre · III. Le Vent dans la plaine....wav" WAVE
TRACK 03 AUDIO
TITLE "Préludes, 1er livre · III. Le Vent dans la plaine. Animé"
PERFORMER "Arturo Benedetti Michelangeli"
ISRC DEF057800510
REM REPLAYGAIN_TRACK_GAIN 5.12 dB
REM REPLAYGAIN_TRACK_PEAK 0.481445
INDEX 01 00:00:00
FILE "04. Préludes, 1er livre · IV. Les Sons es les parfums....wav" WAVE
TRACK 04 AUDIO
TITLE "Préludes, 1er livre · IV. Les Sons es les parfums tournent dans l’air du soir. Modéré"
PERFORMER "Arturo Benedetti Michelangeli"
ISRC DEF057800520
REM REPLAYGAIN_TRACK_GAIN 8.74 dB
REM REPLAYGAIN_TRACK_PEAK 0.340820
INDEX 01 00:00:00
FILE "05. Préludes, 1er livre · V. Les Collines d’Anacapri....wav" WAVE
TRACK 05 AUDIO
TITLE "Préludes, 1er livre · V. Les Collines d’Anacapri. Très modéré"
PERFORMER "Arturo Benedetti Michelangeli"
ISRC DEF057800530
REM REPLAYGAIN_TRACK_GAIN 2.99 dB
REM REPLAYGAIN_TRACK_PEAK 0.571167
INDEX 01 00:00:00
FILE "06. Préludes, 1er livre · VI. Des pas sur le neige....wav" WAVE
TRACK 06 AUDIO
TITLE "Préludes, 1er livre · VI. Des pas sur le neige. Triste et lent"
PERFORMER "Arturo Benedetti Michelangeli"
ISRC DEF057800540
REM REPLAYGAIN_TRACK_GAIN 16.13 dB
REM REPLAYGAIN_TRACK_PEAK 0.209564
INDEX 01 00:00:00
FILE "07. Préludes, 1er livre · VII. Ce qu’a vu le vent d’ouest....wav" WAVE
TRACK 07 AUDIO
TITLE "Préludes, 1er livre · VII. Ce qu’a vu le vent d’ouest. Animé et tumultueux"
PERFORMER "Arturo Benedetti Michelangeli"
ISRC DEF057800550
REM REPLAYGAIN_TRACK_GAIN -0.05 dB
REM REPLAYGAIN_TRACK_PEAK 0.572296
INDEX 01 00:00:00
FILE "08. Préludes, 1er livre · VIII. La Fille aux cheveux de lin....wav" WAVE
TRACK 08 AUDIO
TITLE "Préludes, 1er livre · VIII. La Fille aux cheveux de lin. Très calme et doucement expressif"
PERFORMER "Arturo Benedetti Michelangeli"
ISRC DEF057800560
REM REPLAYGAIN_TRACK_GAIN 10.30 dB
REM REPLAYGAIN_TRACK_PEAK 0.458435
INDEX 01 00:00:00
FILE "09. Préludes, 1er livre · IX. La Sérénade interrompue....wav" WAVE
TRACK 09 AUDIO
TITLE "Préludes, 1er livre · IX. La Sérénade interrompue. Modérément animé"
PERFORMER "Arturo Benedetti Michelangeli"
ISRC DEF057800570
REM REPLAYGAIN_TRACK_GAIN 6.90 dB
REM REPLAYGAIN_TRACK_PEAK 0.455536
INDEX 01 00:00:00
FILE "10. Préludes, 1er livre · X. La Cathédrale engloutie....wav" WAVE
TRACK 10 AUDIO
TITLE "Préludes, 1er livre · X. La Cathédrale engloutie. Profondément calme"
PERFORMER "Arturo Benedetti Michelangeli"
ISRC DEF057800580
REM REPLAYGAIN_TRACK_GAIN 2.13 dB
REM REPLAYGAIN_TRACK_PEAK 0.606262
INDEX 01 00:00:00
FILE "11. Préludes, 1er livre · XI. La Danse de Puck....wav" WAVE
TRACK 11 AUDIO
TITLE "Préludes, 1er livre · XI. La Danse de Puck. Capricieux et léger"
PERFORMER "Arturo Benedetti Michelangeli"
ISRC DEF057800590
REM REPLAYGAIN_TRACK_GAIN 5.27 dB
REM REPLAYGAIN_TRACK_PEAK 0.432434
INDEX 01 00:00:00
FILE "12. Préludes, 1er livre · XII. Minstrels....wav" WAVE
TRACK 12 AUDIO
TITLE "Préludes, 1er livre · XII. Minstrels. Modéré"
PERFORMER "Arturo Benedetti Michelangeli"
ISRC DEF057800600
REM REPLAYGAIN_TRACK_GAIN 3.28 dB
REM REPLAYGAIN_TRACK_PEAK 0.552185
INDEX 01 00:00:00
TRACK 13 AUDIO
TITLE "Sonata for Violoncello and Piano · I. Prologue. Lent"
PERFORMER "Mstislav Rostropovich, Benjamin Britten"
ISRC GBF076110071
REM REPLAYGAIN_TRACK_GAIN 4.25 dB
REM REPLAYGAIN_TRACK_PEAK 0.513062
INDEX 00 02:31:49
FILE "13. Sonata for Violoncello and Piano · I. Prologue....wav" WAVE
INDEX 01 00:00:00
FILE "14. Sonata for Violoncello and Piano · II. Sérénade....wav" WAVE
TRACK 14 AUDIO
TITLE "Sonata for Violoncello and Piano · II. Sérénade. Modérément animé"
PERFORMER "Mstislav Rostropovich, Benjamin Britten"
ISRC GBF076110072
REM REPLAYGAIN_TRACK_GAIN 4.86 dB
REM REPLAYGAIN_TRACK_PEAK 0.534027
INDEX 01 00:00:00
FILE "15. Sonata for Violoncello and Piano · III. Finale....wav" WAVE
TRACK 15 AUDIO
TITLE "Sonata for Violoncello and Piano · III. Finale. Animé"
PERFORMER "Mstislav Rostropovich, Benjamin Britten"
ISRC GBF076110073
REM REPLAYGAIN_TRACK_GAIN 1.24 dB
REM REPLAYGAIN_TRACK_PEAK 0.619690
INDEX 01 00:00:00
TRACK 16 AUDIO
TITLE "Nocturnes (Triptyque symphonique) · Nuages. Modéré"
PERFORMER "Boston Symphony Orchestra, Claudio Abbado"
ISRC DEF057001100
REM REPLAYGAIN_TRACK_GAIN 9.49 dB
REM REPLAYGAIN_TRACK_PEAK 0.786438
INDEX 00 03:49:34
FILE "16. Nocturnes (Triptyque symphonique) · Nuages....wav" WAVE
INDEX 01 00:00:00
FILE "17. Nocturnes (Triptyque symphonique) · Fêtes....wav" WAVE
TRACK 17 AUDIO
TITLE "Nocturnes (Triptyque symphonique) · Fêtes. Animé et très rythmé"
PERFORMER "Boston Symphony Orchestra, Claudio Abbado"
ISRC DEF057001101
REM REPLAYGAIN_TRACK_GAIN -0.79 dB
REM REPLAYGAIN_TRACK_PEAK 0.836395
INDEX 01 00:00:00
FILE "18. Nocturnes (Triptyque symphonique) · Sirènes....wav" WAVE
TRACK 18 AUDIO
TITLE "Nocturnes (Triptyque symphonique) · Sirènes. Modérément animé"
PERFORMER "Boston Symphony Orchestra, Claudio Abbado"
ISRC DEF057001102
REM REPLAYGAIN_TRACK_GAIN -0.61 dB
REM REPLAYGAIN_TRACK_PEAK 0.932587
INDEX 01 00:00:00



Показать сообщения:    

Текущее время: 11-Дек 11:04

Часовой пояс: UTC + 3


Вы не можете начинать темы
Вы не можете отвечать на сообщения
Вы не можете редактировать свои сообщения
Вы не можете удалять свои сообщения
Вы не можете голосовать в опросах
Вы не можете прикреплять файлы к сообщениям
Вы не можете скачивать файлы