(Chamber/Medieval) La Lira d'Esperia II: Galicia (Jordi Savall) - 2014, FLAC (tracks+.cue) lossless


 

[Цитировать]

Jordi Savall • Pedro Estevan — La Lira d'Esperia II: Galicia-Chamber/Medieval • Alia Vox • AVSA9907 • 2015 • lossless • FLAC • tracks+.cue • 01:13:41 • what.cd • сканы-01 Alfonso X el Sabio - Invocacao & Ductia
02 Alfonso X el Sabio - Ronda
03 Anonymous - Alala - Cancao d'embalar
04 Anonymous - Pandeirada - Estrelina do Luceiro
05 Alfonso X el Sabio - Rotundellus
06 Anonymous - Istampita - En querer
07 Anonymous - Maruxina
08 Alfonso X el Sabio - Pregaria - En a gran coita
09 Alfonso X el Sabio - Saltarello
10 Anonymous - Nana - Cancao d'embalar
11 Anonymous - Danca - Caminando
12 Alfonso X el Sabio - Cantiga - A Virgen - Ronda - Baile
13 Anonymous - Invocacao & Alborada
14 Alfonso X el Sabio - Ductia de Santa Maria
15 Alfonso X el Sabio - Cantiga ''Virgen Madre groriosa''
16 Alfonso X el Sabio - Istampita & Rota ''Ciudad Rodrigo''
17 Anonymous - Panxolina Vinde, picarinas - Baile da terra Os fillos dos ricos
18 Alfonso X el Sabio - Foliada ''Don Alfonso''
19 Anonymous - Cancao ''La moza que rabio'' & Baile
20 Alfonso X el Sabio - Ductia & Rota
21 Anonymous - Ainhara & Canto de ciego I
22 Anonymous - Canto de ciego II - Lamento
23 Anonymous - Canto de despedida ''Adios meu homino'' & Danza Airinos
-Jordi Savall - rebec, vièle ténor & rebel morisco (rebab) || Pedro Estevan, David Mayoral - percussions-Recorded: 02.2014

cue

REM GENRE Classical
REM DATE 2014
REM DISCID 56114517
REM COMMENT "ExactAudioCopy v1.0b3"
PERFORMER ""
TITLE "La Lira d'Esperia II: Galicia"
FILE "01 - Alfonso X el Sabio - Invocacao & Ductia.wav" WAVE
TRACK 01 AUDIO
TITLE "Invocacao & Ductia"
PERFORMER "Alfonso X el Sabio"
INDEX 01 00:00:00
FILE "02 - Alfonso X el Sabio - Ronda.wav" WAVE
TRACK 02 AUDIO
TITLE "Ronda"
PERFORMER "Alfonso X el Sabio"
INDEX 01 00:00:00
FILE "03 - Anonymous - Alala - Cancao d'embalar.wav" WAVE
TRACK 03 AUDIO
TITLE "Alala : Cancao d'embalar"
PERFORMER "Anonymous"
INDEX 01 00:00:00
FILE "04 - Anonymous - Pandeirada - Estrelina do Luceiro.wav" WAVE
TRACK 04 AUDIO
TITLE "Pandeirada : Estrelina do Luceiro"
PERFORMER "Anonymous"
INDEX 01 00:00:00
FILE "05 - Alfonso X el Sabio - Rotundellus.wav" WAVE
TRACK 05 AUDIO
TITLE "Rotundellus"
PERFORMER "Alfonso X el Sabio"
INDEX 01 00:00:00
FILE "06 - Anonymous - Istampita - En querer.wav" WAVE
TRACK 06 AUDIO
TITLE "Istampita : En querer"
PERFORMER "Anonymous"
INDEX 01 00:00:00
FILE "07 - Anonymous - Maruxina.wav" WAVE
TRACK 07 AUDIO
TITLE "Maruxina"
PERFORMER "Anonymous"
INDEX 01 00:00:00
FILE "08 - Alfonso X el Sabio - Pregaria - En a gran coita.wav" WAVE
TRACK 08 AUDIO
TITLE "Pregaria : En a gran coita"
PERFORMER "Alfonso X el Sabio"
INDEX 01 00:00:00
FILE "09 - Alfonso X el Sabio - Saltarello.wav" WAVE
TRACK 09 AUDIO
TITLE "Saltarello"
PERFORMER "Alfonso X el Sabio"
INDEX 01 00:00:00
FILE "10 - Anonymous - Nana - Cancao d'embalar.wav" WAVE
TRACK 10 AUDIO
TITLE "Nana : Cancao d'embalar"
PERFORMER "Anonymous"
INDEX 01 00:00:00
FILE "11 - Anonymous - Danca - Caminando.wav" WAVE
TRACK 11 AUDIO
TITLE "Danca : Caminando"
PERFORMER "Anonymous"
INDEX 01 00:00:00
FILE "12 - Alfonso X el Sabio - Cantiga - A Virgen - Ronda - Baile.wav" WAVE
TRACK 12 AUDIO
TITLE "Cantiga : A Virgen - Ronda - Baile"
PERFORMER "Alfonso X el Sabio"
INDEX 01 00:00:00
FILE "13 - Anonymous - Invocacao & Alborada.wav" WAVE
TRACK 13 AUDIO
TITLE "Invocacao & Alborada"
PERFORMER "Anonymous"
INDEX 01 00:00:00
FILE "14 - Alfonso X el Sabio - Ductia de Santa Maria.wav" WAVE
TRACK 14 AUDIO
TITLE "Ductia de Santa Maria"
PERFORMER "Alfonso X el Sabio"
INDEX 01 00:00:00
FILE "15 - Alfonso X el Sabio - Cantiga ''Virgen Madre groriosa''.wav" WAVE
TRACK 15 AUDIO
TITLE "Cantiga 'Virgen Madre groriosa'"
PERFORMER "Alfonso X el Sabio"
INDEX 01 00:00:00
FILE "16 - Alfonso X el Sabio - Istampita & Rota ''Ciudad Rodrigo''.wav" WAVE
TRACK 16 AUDIO
TITLE "Istampita & Rota 'Ciudad Rodrigo'"
PERFORMER "Alfonso X el Sabio"
INDEX 01 00:00:00
FILE "17 - Anonymous - Panxolina ''Vinde, picarinas'' - Baile da terra ''Os fillos dos ricos''.wav" WAVE
TRACK 17 AUDIO
TITLE "Panxolina 'Vinde, picarinas' - Baile da terra 'Os fillos dos ricos'"
PERFORMER "Anonymous"
INDEX 01 00:00:00
FILE "18 - Alfonso X el Sabio - Foliada ''Don Alfonso''.wav" WAVE
TRACK 18 AUDIO
TITLE "Foliada 'Don Alfonso'"
PERFORMER "Alfonso X el Sabio"
INDEX 01 00:00:00
FILE "19 - Anonymous - Cancao ''La moza que rabio'' & Baile.wav" WAVE
TRACK 19 AUDIO
TITLE "Cancao 'La moza que rabio' & Baile"
PERFORMER "Anonymous"
INDEX 01 00:00:00
FILE "20 - Alfonso X el Sabio - Ductia & Rota.wav" WAVE
TRACK 20 AUDIO
TITLE "Ductia & Rota"
PERFORMER "Alfonso X el Sabio"
INDEX 01 00:00:00
FILE "21 - Anonymous - Ainhara & Canto de ciego I.wav" WAVE
TRACK 21 AUDIO
TITLE "Ainhara & Canto de ciego I"
PERFORMER "Anonymous"
INDEX 01 00:00:00
FILE "22 - Anonymous - Canto de ciego II - Lamento.wav" WAVE
TRACK 22 AUDIO
TITLE "Canto de ciego II : Lamento"
PERFORMER "Anonymous"
INDEX 01 00:00:00
FILE "23 - Anonymous - Canto de despedida ''Adios meu homino'' & Danza Airinos.wav" WAVE
TRACK 23 AUDIO
TITLE "Canto de despedida 'Adios meu homino' & Danza Airinos "
PERFORMER "Anonymous"
INDEX 01 00:00:00

log

Exact Audio Copy V1.0 beta 3 from 29. August 2011
EAC extraction logfile from 19. February 2015, 9:53
- / La Lira d'Esperia II: Galicia
Used drive : Optiarc DVD RW AD-5280S Adapter: 2 ID: 1
Read mode : Secure
Utilize accurate stream : Yes
Defeat audio cache : Yes
Make use of C2 pointers : No
Read offset correction : 48
Overread into Lead-In and Lead-Out : No
Fill up missing offset samples with silence : Yes
Delete leading and trailing silent blocks : No
Null samples used in CRC calculations : Yes
Used interface : Native Win32 interface for Win NT & 2000
Gap handling : Appended to previous track
Used output format : User Defined Encoder
Selected bitrate : 768 kBit/s
Quality : High
Add ID3 tag : No
Command line compressor : C:\Program Files\Exact Audio Copy\FLAC\FLAC.EXE
Additional command line options : -8 -V -T "ARTIST=%artist%" -T "TITLE=%title%" -T "ALBUM=%albumtitle%" -T "DATE=%year%" -T "TRACKNUMBER=%tracknr%" -T "TOTALTRACKS=%numtracks%" -T "GENRE=%genre%" -T "ALBUMARTIST=%albumartist%" -T "ALBUM ARTIST=%albumartist%" -T "COMMENT=EAC Secure Mode, Test & Copy, AccurateRip, FLAC -8" %source%
TOC of the extracted CD
Track | Start | Length | Start sector | End sector
---------------------------------------------------------
1 | 0:00.00 | 3:18.46 | 0 | 14895
2 | 3:18.46 | 2:09.14 | 14896 | 24584
3 | 5:27.60 | 4:39.52 | 24585 | 45561
4 | 10:07.37 | 3:17.45 | 45562 | 60381
5 | 13:25.07 | 5:40.34 | 60382 | 85915
6 | 19:05.41 | 1:50.74 | 85916 | 94239
7 | 20:56.40 | 1:46.45 | 94240 | 102234
8 | 22:43.10 | 3:11.00 | 102235 | 116559
9 | 25:54.10 | 2:31.51 | 116560 | 127935
10 | 28:25.61 | 1:48.60 | 127936 | 136095
11 | 30:14.46 | 2:49.53 | 136096 | 148823
12 | 33:04.24 | 5:51.48 | 148824 | 175196
13 | 38:55.72 | 3:29.35 | 175197 | 190906
14 | 42:25.32 | 1:45.50 | 190907 | 198831
15 | 44:11.07 | 3:00.30 | 198832 | 212361
16 | 47:11.37 | 3:10.12 | 212362 | 226623
17 | 50:21.49 | 3:36.36 | 226624 | 242859
18 | 53:58.10 | 5:59.11 | 242860 | 269795
19 | 59:57.21 | 2:15.63 | 269796 | 279983
20 | 62:13.09 | 2:40.38 | 279984 | 292021
21 | 64:53.47 | 3:46.68 | 292022 | 309039
22 | 68:40.40 | 2:05.00 | 309040 | 318414
23 | 70:45.40 | 2:55.52 | 318415 | 331591
Track 1
Filename F:\Various Composers - La Lira d’Esperia II - Galicia (Jordi Savall, Pedro Estevan) (2014) [FLAC]\01 - Alfonso X el Sabio - Invocacao & Ductia.wav
Pre-gap length 0:00:02.00
Peak level 99.7 %
Extraction speed 4.9 X
Track quality 100.0 %
Test CRC 803F12DE
Copy CRC 803F12DE
Accurately ripped (confidence 4) [476A3856] (AR v2)
Copy OK
Track 2
Filename F:\Various Composers - La Lira d’Esperia II - Galicia (Jordi Savall, Pedro Estevan) (2014) [FLAC]\02 - Alfonso X el Sabio - Ronda.wav
Peak level 99.9 %
Extraction speed 4.7 X
Track quality 100.0 %
Test CRC 46952BD3
Copy CRC 46952BD3
Accurately ripped (confidence 4) [5AC27143] (AR v2)
Copy OK
Track 3
Filename F:\Various Composers - La Lira d’Esperia II - Galicia (Jordi Savall, Pedro Estevan) (2014) [FLAC]\03 - Anonymous - Alala - Cancao d'embalar.wav
Peak level 93.2 %
Extraction speed 5.8 X
Track quality 100.0 %
Test CRC 11B414E7
Copy CRC 11B414E7
Accurately ripped (confidence 4) [A4F825E2] (AR v2)
Copy OK
Track 4
Filename F:\Various Composers - La Lira d’Esperia II - Galicia (Jordi Savall, Pedro Estevan) (2014) [FLAC]\04 - Anonymous - Pandeirada - Estrelina do Luceiro.wav
Peak level 82.5 %
Extraction speed 5.9 X
Track quality 100.0 %
Test CRC 615BA5FB
Copy CRC 615BA5FB
Accurately ripped (confidence 4) [73989E38] (AR v2)
Copy OK
Track 5
Filename F:\Various Composers - La Lira d’Esperia II - Galicia (Jordi Savall, Pedro Estevan) (2014) [FLAC]\05 - Alfonso X el Sabio - Rotundellus.wav
Peak level 99.0 %
Extraction speed 6.8 X
Track quality 100.0 %
Test CRC F2595100
Copy CRC F2595100
Accurately ripped (confidence 4) [B505E881] (AR v2)
Copy OK
Track 6
Filename F:\Various Composers - La Lira d’Esperia II - Galicia (Jordi Savall, Pedro Estevan) (2014) [FLAC]\06 - Anonymous - Istampita - En querer.wav
Peak level 99.2 %
Extraction speed 5.9 X
Track quality 100.0 %
Test CRC AE586065
Copy CRC AE586065
Accurately ripped (confidence 4) [2A3974A0] (AR v2)
Copy OK
Track 7
Filename F:\Various Composers - La Lira d’Esperia II - Galicia (Jordi Savall, Pedro Estevan) (2014) [FLAC]\07 - Anonymous - Maruxina.wav
Peak level 99.2 %
Extraction speed 3.3 X
Track quality 99.9 %
Test CRC 92C259D5
Copy CRC 92C259D5
Accurately ripped (confidence 4) [E5CAE620] (AR v2)
Copy OK
Track 8
Filename F:\Various Composers - La Lira d’Esperia II - Galicia (Jordi Savall, Pedro Estevan) (2014) [FLAC]\08 - Alfonso X el Sabio - Pregaria - En a gran coita.wav
Peak level 82.3 %
Extraction speed 7.0 X
Track quality 100.0 %
Test CRC 07D5E7C5
Copy CRC 07D5E7C5
Accurately ripped (confidence 4) [3A879764] (AR v2)
Copy OK
Track 9
Filename F:\Various Composers - La Lira d’Esperia II - Galicia (Jordi Savall, Pedro Estevan) (2014) [FLAC]\09 - Alfonso X el Sabio - Saltarello.wav
Peak level 99.1 %
Extraction speed 6.9 X
Track quality 100.0 %
Test CRC C0E59CA9
Copy CRC C0E59CA9
Accurately ripped (confidence 4) [0F241B52] (AR v2)
Copy OK
Track 10
Filename F:\Various Composers - La Lira d’Esperia II - Galicia (Jordi Savall, Pedro Estevan) (2014) [FLAC]\10 - Anonymous - Nana - Cancao d'embalar.wav
Peak level 75.6 %
Extraction speed 6.6 X
Track quality 100.0 %
Test CRC 984915E8
Copy CRC 984915E8
Accurately ripped (confidence 4) [8C1F49AB] (AR v2)
Copy OK
Track 11
Filename F:\Various Composers - La Lira d’Esperia II - Galicia (Jordi Savall, Pedro Estevan) (2014) [FLAC]\11 - Anonymous - Danca - Caminando.wav
Peak level 87.4 %
Extraction speed 7.4 X
Track quality 100.0 %
Test CRC F638FB20
Copy CRC F638FB20
Accurately ripped (confidence 4) [DA7E800C] (AR v2)
Copy OK
Track 12
Filename F:\Various Composers - La Lira d’Esperia II - Galicia (Jordi Savall, Pedro Estevan) (2014) [FLAC]\12 - Alfonso X el Sabio - Cantiga - A Virgen - Ronda - Baile.wav
Peak level 99.4 %
Extraction speed 8.6 X
Track quality 100.0 %
Test CRC EA098A7A
Copy CRC EA098A7A
Accurately ripped (confidence 4) [25D4961F] (AR v2)
Copy OK
Track 13
Filename F:\Various Composers - La Lira d’Esperia II - Galicia (Jordi Savall, Pedro Estevan) (2014) [FLAC]\13 - Anonymous - Invocacao & Alborada.wav
Peak level 100.0 %
Extraction speed 5.4 X
Track quality 99.9 %
Test CRC 91D6F1DC
Copy CRC 91D6F1DC
Accurately ripped (confidence 4) [AA9C7A11] (AR v2)
Copy OK
Track 14
Filename F:\Various Composers - La Lira d’Esperia II - Galicia (Jordi Savall, Pedro Estevan) (2014) [FLAC]\14 - Alfonso X el Sabio - Ductia de Santa Maria.wav
Peak level 98.8 %
Extraction speed 7.4 X
Track quality 100.0 %
Test CRC 4D86BD2E
Copy CRC 4D86BD2E
Accurately ripped (confidence 4) [DB8547D6] (AR v2)
Copy OK
Track 15
Filename F:\Various Composers - La Lira d’Esperia II - Galicia (Jordi Savall, Pedro Estevan) (2014) [FLAC]\15 - Alfonso X el Sabio - Cantiga ''Virgen Madre groriosa''.wav
Peak level 83.5 %
Extraction speed 8.4 X
Track quality 100.0 %
Test CRC A064A769
Copy CRC A064A769
Accurately ripped (confidence 4) [BFBD01CF] (AR v2)
Copy OK
Track 16
Filename F:\Various Composers - La Lira d’Esperia II - Galicia (Jordi Savall, Pedro Estevan) (2014) [FLAC]\16 - Alfonso X el Sabio - Istampita & Rota ''Ciudad Rodrigo''.wav
Peak level 99.6 %
Extraction speed 8.7 X
Track quality 100.0 %
Test CRC BF1E57D1
Copy CRC BF1E57D1
Accurately ripped (confidence 4) [264C174B] (AR v2)
Copy OK
Track 17
Filename F:\Various Composers - La Lira d’Esperia II - Galicia (Jordi Savall, Pedro Estevan) (2014) [FLAC]\17 - Anonymous - Panxolina ''Vinde, picarinas'' - Baile da terra ''Os fillos dos ricos''.wav
Peak level 98.8 %
Extraction speed 6.0 X
Track quality 99.9 %
Test CRC E71BC69F
Copy CRC E71BC69F
Accurately ripped (confidence 4) [930AA1ED] (AR v2)
Copy OK
Track 18
Filename F:\Various Composers - La Lira d’Esperia II - Galicia (Jordi Savall, Pedro Estevan) (2014) [FLAC]\18 - Alfonso X el Sabio - Foliada ''Don Alfonso''.wav
Peak level 99.1 %
Extraction speed 9.8 X
Track quality 100.0 %
Test CRC 8491BA1C
Copy CRC 8491BA1C
Accurately ripped (confidence 4) [E9FDDD06] (AR v2)
Copy OK
Track 19
Filename F:\Various Composers - La Lira d’Esperia II - Galicia (Jordi Savall, Pedro Estevan) (2014) [FLAC]\19 - Anonymous - Cancao ''La moza que rabio'' & Baile.wav
Peak level 99.1 %
Extraction speed 8.9 X
Track quality 100.0 %
Test CRC 3EBF962D
Copy CRC 3EBF962D
Accurately ripped (confidence 4) [29564049] (AR v2)
Copy OK
Track 20
Filename F:\Various Composers - La Lira d’Esperia II - Galicia (Jordi Savall, Pedro Estevan) (2014) [FLAC]\20 - Alfonso X el Sabio - Ductia & Rota.wav
Peak level 99.0 %
Extraction speed 9.2 X
Track quality 100.0 %
Test CRC A58B0399
Copy CRC A58B0399
Accurately ripped (confidence 4) [1A14B827] (AR v2)
Copy OK
Track 21
Filename F:\Various Composers - La Lira d’Esperia II - Galicia (Jordi Savall, Pedro Estevan) (2014) [FLAC]\21 - Anonymous - Ainhara & Canto de ciego I.wav
Peak level 99.0 %
Extraction speed 10.0 X
Track quality 100.0 %
Test CRC 40D49194
Copy CRC 40D49194
Accurately ripped (confidence 4) [585A7D6C] (AR v2)
Copy OK
Track 22
Filename F:\Various Composers - La Lira d’Esperia II - Galicia (Jordi Savall, Pedro Estevan) (2014) [FLAC]\22 - Anonymous - Canto de ciego II - Lamento.wav
Peak level 99.1 %
Extraction speed 9.2 X
Track quality 100.0 %
Test CRC 2F8658B2
Copy CRC 2F8658B2
Accurately ripped (confidence 4) [FF23BFD8] (AR v2)
Copy OK
Track 23
Filename F:\Various Composers - La Lira d’Esperia II - Galicia (Jordi Savall, Pedro Estevan) (2014) [FLAC]\23 - Anonymous - Canto de despedida ''Adios meu homino'' & Danza Airinos.wav
Peak level 99.1 %
Extraction speed 9.9 X
Track quality 100.0 %
Test CRC 0BB5E1C6
Copy CRC 0BB5E1C6
Accurately ripped (confidence 4) [33FBDB05] (AR v2)
Copy OK
All tracks accurately ripped
No errors occurred
End of status report
==== Log checksum 10937280F615DF15FB3B09836D46B0E8D85DDB8016FC80B2A0FE0E26C575B14F ====



Показать сообщения:    

Текущее время: 04-Дек 06:57

Часовой пояс: UTC + 3


Вы не можете начинать темы
Вы не можете отвечать на сообщения
Вы не можете редактировать свои сообщения
Вы не можете удалять свои сообщения
Вы не можете голосовать в опросах
Вы не можете прикреплять файлы к сообщениям
Вы не можете скачивать файлы