Маришка бэнд / Mariška band (Петар Крелья / Petar Krelja) [1985, Документальный, TVRip]


Статистика раздачи [Обновить пиров]
Размер:  446 MB   |    Зарегистрирован:  8 месяцев 15 дней   |    Скачан:  0 раз

Полного источника не было: Никогда

 
   
 
 
 

[Цитировать]

Маришка бэнд / Mariška band
Дата/Год выпуска: 1986
Страна: Хорватия
Жанр: документальный
Продолжительность: 00:29:07
Перевод: Субтитры [С. Покровский]
Русские субтитры: есть
Формат субтитров: softsub (SRT)
Оригинальная аудиодорожка: хорватский
Режиссер: Петер Крелья / Petar Krelja
Телеканал: HRT 2
Описание: Холобек (Фуньяк) Маришка родилась в Сарисапе (Венгрия), в 1904 году. Жила в Копривнице (Хорватия) с 1910, где умерла в 1993. Во взрослом возрасте играла на нескольких инструментах. Сначала она училась играть на пианино и аккордионе, а затем на скрипке вместе с отцом, который играл в военном оркестре. Активно выступать начала в 1960-х с Подравинскими фольклорными песнями в популярной в Копривнице группе "Kanarinci".
В 80-х годах её ансамбль, получивший имя "Mariska Band", обрёл большую популярность концертами, на которые с радостью собирались люди всех возрастов. Полная жизни, Маришка до конца своих дней продолжала преподавать музыку детям.
В 1986 году директор тогдашнего канала RTZ (ныне HRT 2) и режиссёр Петар Крелья снимают документальный фильм о её жизни, посвящённой музыке, на фоне одного из концертов группы. На момент съёмок фильма Маришке Холобек было 82 года.
Доп. информация: Перевод выполнен с английских субтитров.
Сэмпл: http://multi-up.com/1082687
качество: TVRip
формат: AVI
Видео: 640x480 (1.33:1), 25 fps, XviD build 63 ~1999 kbps avg, 0.26 bit/pixel
Аудио: 44.100 kHz, MPEG Layer 3, 2 ch, ~128.00 kbps avg

MediaInfo

General
Complete name : 1985 - Petar Krelja - Marishka band.avi
Format : AVI
Format/Info : Audio Video Interleave
File size : 446 MiB
Duration : 29mn 7s
Overall bit rate : 2 141 Kbps
Writing application : Lavf55.19.104
Video
ID : 0
Format : xvid
Codec ID : xvid
Duration : 29mn 7s
Bit rate : 2 000 Kbps
Width : 640 pixels
Height : 480 pixels
Display aspect ratio : 4:3
Frame rate : 25.000 fps
Bits/(Pixel*Frame) : 0.260
Stream size : 417 MiB (93%)
Audio
ID : 1
Format : MPEG Audio
Format version : Version 1
Format profile : Layer 3
Mode : Joint stereo
Mode extension : MS Stereo
Codec ID : 55
Codec ID/Hint : MP3
Duration : 29mn 7s
Bit rate mode : Constant
Bit rate : 128 Kbps
Channel(s) : 2 channels
Sampling rate : 44.1 KHz
Compression mode : Lossy
Stream size : 26.7 MiB (6%)
Alignment : Aligned on interleaves
Interleave, duration : 26 ms (0.65 video frame)
Interleave, preload duratio : 78 ms

Пример субтитров (на сэмпл)

83
00:12:16,496 --> 00:12:18,467
Аплодисменты ей.
84
00:12:23,310 --> 00:12:25,452
Я постараюсь представить её.
85
00:12:26,156 --> 00:12:28,891
Я постараюсь представить её.
Скажите ваше имя?
86
00:12:29,678 --> 00:12:34,054
Меня зовут Драженка Шегрц
и я играю на трубе с пятнадцатилетнего возраста.
87
00:12:34,576 --> 00:12:37,037
Итак, Драженка играет на трубе
с пятнадцати лет.
88
00:12:37,645 --> 00:12:39,331
Давайте начинать.
89
00:13:21,361 --> 00:13:23,361
Давайте, все, энергичнее!
90
00:13:24,699 --> 00:13:26,092
Энергичнее, поднимайте руки!
91
00:13:28,796 --> 00:13:31,623
Давайте все петь, кто знает.

Скриншоты

[teatrix.ru].t22797.torrent 
Торрент: Зарегистрирован [ 2016-03-21 00:45 ] · 06EE7ADBC68BE67E9F00A3A1D18A4D3DB299834F

Скачать .torrent

Скачать

18 KB

Статус: проверено
Скачан: 0 раз
Размер: 446 MB
terms.php



Быстрый ответ

Имя:

      
Для отправки сообщений необходимо включить JavaScript
Показать сообщения:    

Текущее время: 05-Дек 05:29

Часовой пояс: UTC + 3


Вы можете начинать темы
Вы можете отвечать на сообщения
Вы не можете редактировать свои сообщения
Вы не можете удалять свои сообщения
Вы не можете голосовать в опросах
Вы не можете прикреплять файлы к сообщениям
Вы можете скачивать файлы