Без вины виноватые (Михаил Салес) [2011 г., Мелодрама, WEB-DLRip] Калининградский областной драматический театр


 

[Цитировать]

Без вины виноватые Название театра: Калининградский областной драматический театр.
Год выпуска: 2011.
Жанр: Мелодрама в 2-х действиях.
Продолжительность: 02:33:22.
Режиссер-постановщик: народный артист России Михаил Салес.
В ролях:
Наталья Салес, Антон Захаров, Марина Юнганс, заслуженный артист России Василий Швечков (ст.), Петр Мутин, заслуженный артист Таджикистана Юрий Харламбов, Александр Федоренко, заслуженная артистка России Наталья Высоцкая, Людмила Козлова, Сергей Борисов, Виталий Баженов, заслуженная артистка России Надежда Гайдар, Юлия Стерлигова, заслуженный артист России Альберт Арнтгольц, Василий Швечков (мл.), Максим Пацерин, Василий Александров, Галина Лукина, Татьяна Рогачева, Максим Махинов.
О спектакле:
Классическая мелодрама о жестоко обманутой женщине, которой удалось сохранить в душе благородство и доброту. Завистливый круг провинциальной богемы не прощает таланта и популярности. В заговор против приезжей знаменитости вовлечены поклонники местной "звезды", среди которых - весьма влиятельные люди. Молодой актер и его приятель готовы устроить скандал на торжественном ужине, чтобы унизить знаменитую актрису...
Дополнительная информация:
Страна: Россия .
Автор: Александр Островский.
Художник-постановщик: Владимир Козлов.
Художник по костюмам: Татьяна Старикова.
Музыкальное оформление: заслуженный деятель искусств России Аркадий Фельдман.
Постановщик танцев: Марина Хайруллина.
Премьера спектакля состоялась 8 октября 2011 года.
Награды и номинации:
• За исполнение главной роли артистка Наталья Салес получила Главный приз конкурса актерского мастерства "Своё лицо".

О спектакле.
Релиз
Рип sharky.

Качество видео:...WEB-DLRip
Формат:.................AVI
Видео:..704x384 (1.83:1), 25 fps, XviD build 47 ~1897 kbps avg, 0.28 bit/pixel
Аудио:..44.100 kHz, MPEG Layer 3, 2 ch, ~128.00 kbps avg

Отчет MI

Общее
Полное имя : Bez.viny.vinovatye_Kaliningradskij.ODT.2011.XviD.WEB-DLRip.fenixclub.avi
Format : AVI
Format/Info : Audio Video Interleave
Format profile : OpenDML
File size : 2.18 GiB
Duration : 2h 33mn
Overall bit rate : 2 032 Kbps
Writing application : VirtualDubMod 1.5.10.2 (build 2540/release)
Writing library : VirtualDubMod build 2540/release
Video
ID : 0
Format : MPEG-4 Visual
Format profile : Advanced Simple@L5
Format settings, BVOP : 1
Format settings, QPel : No
Format settings, GMC : No warppoints
Format settings, Matrix : Default (H.263)
Codec ID : XVID
Codec ID/Hint : XviD
Duration : 2h 33mn
Bit rate : 1 892 Kbps
Width : 704 pixels
Height : 384 pixels
Display aspect ratio : 1.85:1
Frame rate : 25.000 fps
Color space : YUV
Chroma subsampling : 4:2:0
Bit depth : 8 bits
Scan type : Progressive
Compression mode : Lossy
Bits/(Pixel*Frame) : 0.280
Stream size : 2.03 GiB (93%)
Writing library : XviD 1.2.0.dev47 (UTC 2006-11-01)
Audio
ID : 1
Format : MPEG Audio
Format version : Version 1
Format profile : Layer 3
Codec ID : 55
Codec ID/Hint : MP3
Duration : 2h 33mn
Bit rate mode : Constant
Bit rate : 128 Kbps
Channel(s) : 2 channels
Sampling rate : 44.1 KHz
Compression mode : Lossy
Stream size : 140 MiB (6%)
Alignment : Split accross interleaves
Interleave, duration : 40 ms (1.00 video frame)
Interleave, preload duratio : 500 ms
Writing library : LAME3.97
Encoding settings : -m s -V 4 -q 2 -lowpass 17 -b 128

Скриншоты


Альтернативный хост





Показать сообщения:    

Текущее время: 24-Янв 12:14

Часовой пояс: UTC + 3


Вы не можете начинать темы
Вы не можете отвечать на сообщения
Вы не можете редактировать свои сообщения
Вы не можете удалять свои сообщения
Вы не можете голосовать в опросах
Вы не можете прикреплять файлы к сообщениям
Вы не можете скачивать файлы