(Classical) Great Works for Flute and Orchestra: Nielsen, Griffes, Reinecke, Chaminade, Poulenc - Sharon Bezaly, Residentie Orkest Den Haag, Neeme Järvi (Jarvi) - 2013, FLAC (image+.cue) lossless


Статистика раздачи [Обновить пиров]
Размер:  272 MB   |    Зарегистрирован:  8 месяцев 19 дней   |    Скачан:  1 раз

Полного источника не было: 3 месяца 22 дня

 
   
 
 
 

[Цитировать]

Great Works for Flute and Orchestra: Nielsen, Griffes, Reinecke, Chaminade, Poulenc - Sharon Bezaly, Residentie Orkest Den Haag, Neeme Järvi
Жанр: Classical
Страна-производитель диска: Sweden
Год издания диска: 2013
Издатель (лейбл): BIS
Номер по каталогу: BIS-SACD-1679
Дата записи: 2007,2008
Аудиокодек: FLAC
Тип рипа: image+.cue
Битрейт аудио: lossless
Продолжительность: 69:25
Источник: собственный рип
Наличие сканов в содержимом раздачи: да
Треклист:
Carl Nielsen (1865–1931)
[1]-[2] Concerto for Flute and Orchestra, FS 119 (1926)
Charles Tomlinson Griffes (1884–1920)
[3] Poem for Flute and Orchestra (1918)
Carl Reinecke (1824–1910)
[4]-[6] Concerto for Flute and Orchestra in D major, Op. 283 (1908)
Cécile Chaminade (1857–1944)
[7] Concertino for Flute and Orchestra, Op. 107 (1902)
Петр Ильич Чайковский (1840–93)
[8] Largo and Allegro for two flutes and strings (1863–64)
Version for solo flute and strings
Francis Poulenc (1899–1963)
orch. Lennox Berkeley
[9]-[11] Flute Sonata (1956–57)
Николай Римский-Корсаков (1844–1908)
arr. Kalevi Aho 2008 – dedicated to Sharon Bezaly
[12] Полет шмеля (1899–1900)
Исполнители:
Sharon Bezaly flute
Residentie Orkest Den Haag
Neeme Järvi
conductor

Лог создания рипа

Exact Audio Copy V1.0 beta 3 from 29. August 2011
EAC extraction logfile from 25. April 2015, 19:00
Sharon Bezaly, Residentie Orkest Den Haag, Neeme Järvi / Great Works for Flute and Orchestra
Used drive : HL-DT-STDVDRAM GU70N Adapter: 0 ID: 0
Read mode : Secure
Utilize accurate stream : Yes
Defeat audio cache : Yes
Make use of C2 pointers : No
Read offset correction : 48
Overread into Lead-In and Lead-Out : No
Fill up missing offset samples with silence : Yes
Delete leading and trailing silent blocks : No
Null samples used in CRC calculations : Yes
Used interface : Native Win32 interface for Win NT & 2000
Used output format : User Defined Encoder
Selected bitrate : 128 kBit/s
Quality : High
Add ID3 tag : No
Command line compressor : C:\Program Files (x86)\Exact Audio Copy\Flac\flac.exe
Additional command line options : -V -8 -T "Date=%year%" -T "Genre=%genre%" %source%
TOC of the extracted CD
Track | Start | Length | Start sector | End sector
---------------------------------------------------------
1 | 0:00.00 | 9:56.23 | 0 | 44722
2 | 9:56.23 | 6:32.37 | 44723 | 74159
3 | 16:28.60 | 10:07.71 | 74160 | 119755
4 | 26:36.56 | 7:09.46 | 119756 | 151976
5 | 33:46.27 | 4:50.35 | 151977 | 173761
6 | 38:36.62 | 6:20.58 | 173762 | 202319
7 | 44:57.45 | 7:14.66 | 202320 | 234935
8 | 52:12.36 | 4:01.27 | 234936 | 253037
9 | 56:13.63 | 4:30.01 | 253038 | 273288
10 | 60:43.64 | 3:36.40 | 273289 | 289528
11 | 64:20.29 | 3:30.11 | 289529 | 305289
12 | 67:50.40 | 1:34.54 | 305290 | 312393
Range status and errors
Selected range
Filename C:\temp\BIS-SACD-1679 - Great Works for Flute and Orchestra - Bezaly\Great Works for Flute and Orchestra.wav
Peak level 99.9 %
Extraction speed 2.3 X
Range quality 99.9 %
Test CRC 3B2E22BA
Copy CRC 3B2E22BA
Copy OK
No errors occurred
AccurateRip summary
Track 1 accurately ripped (confidence 3) [71CF7C51] (AR v2)
Track 2 accurately ripped (confidence 4) [8372849F] (AR v2)
Track 3 accurately ripped (confidence 4) [D803F1F9] (AR v2)
Track 4 accurately ripped (confidence 4) [AC93D65C] (AR v2)
Track 5 accurately ripped (confidence 4) [6A4CB699] (AR v2)
Track 6 accurately ripped (confidence 4) [C313E5B3] (AR v2)
Track 7 accurately ripped (confidence 3) [A77195F5] (AR v2)
Track 8 accurately ripped (confidence 3) [748BBE8F] (AR v2)
Track 9 accurately ripped (confidence 3) [F3CA9A55] (AR v2)
Track 10 accurately ripped (confidence 3) [AF5D54AB] (AR v2)
Track 11 accurately ripped (confidence 4) [01E66376] (AR v2)
Track 12 accurately ripped (confidence 4) [FC77F8F1] (AR v2)
All tracks accurately ripped
End of status report
==== Log checksum A7D45E7E75F1B8605CAFD7DD33365429E728F84EFBBE18E7029D4DF22F4538A2 ====
[teatrix.ru].t22799.torrent 
Торрент: Зарегистрирован [ 2016-03-21 00:45 ] · A7BAFA82D0D6CB8E60C0A0A1649B17AE799782B4

Скачать .torrent

Скачать

22 KB

Статус: проверено
Скачан: 1 раз
Размер: 272 MB
terms.php



Быстрый ответ

Имя:

      
Для отправки сообщений необходимо включить JavaScript
Показать сообщения:    

Текущее время: 09-Дек 10:47

Часовой пояс: UTC + 3


Вы можете начинать темы
Вы можете отвечать на сообщения
Вы не можете редактировать свои сообщения
Вы не можете удалять свои сообщения
Вы не можете голосовать в опросах
Вы не можете прикреплять файлы к сообщениям
Вы можете скачивать файлы