(Opera, Vocal) Jussi Bjoerling - Operatic Arias (Verdi, Puccini, Mascagni, Gounod, Leoncavallo, Бородин, Giordano, Flotow, Donizetti, Чайковский) - 1987, FLAC (image+.cue) lossless


 

[Цитировать]

Jussi Bjoerling - Operatic Arias
Жанр: Opera, Vocal
Носитель: CD
Страна-производитель диска (релиза): Germany
Год издания: 1987
Издатель (лейбл): RCA Red Seal
Номер по каталогу: RD 85934 01
Страна исполнителя (группы): Sweden
Аудиокодек: FLAC (*.flac)
Тип рипа: image+.cue
Битрейт аудио: lossless
Продолжительность: 01:10:51
Источник (релизер): рип с собственного CD
Наличие сканов в содержимом раздачи: да (*.jpg, 200dpi)
Easy Tracklist:
01. Se Quel Guerriero Io Fossi - Aida                   [0:04:58.25]
02. Donna Non Vidi Mai - Manon Lescaut [0:02:33.03]
03. La Donna E Mobile - Rigoletto [0:02:14.07]
04. Ella mi fu rapita - Rigoletto [0:05:31.48]
05. O Lola - Cavalleria Rusticana [0:03:27.37]
06. Salut, Demeure Chaste Et Pure - Faust [0:04:56.15]
07. Vesti La Giubba - Pagliacci [0:03:57.63]
08. Che Gelida Manina - La Boheme [0:05:06.05]
09. Vladimir's Recitative And Cavatina - Prince Igor [0:04:07.07]
10. Come Un Bel Di Di Maggio - Andrea Chénier [0:03:36.45]
11. M'appari Tutt'amor - Martha [0:03:45.63]
12. Una Furtiva Lagrima - L'Elisir d'Amore [0:04:59.30]
13. Forbi, Forbi (Lensky's Aria) - Eugen Onegin [0:06:46.62]
14. Non Piangere - Turandot [0:02:58.10]
15. Nessun Dorma - Turandot [0:03:27.18]
16. Recondita Armonia - Tosca [0:03:03.02]
17. E Lucevan Le Stelle - Tosca [0:03:36.68]
18. O Dolci Mani - Tosca [0:01:45.17]

Complicated Tracklist

01. Composer: Giuseppe Verdi
Opera: Aida, Act 1
Se Quel Guerriero Io Fossi; Celeste Aida
Performer: Jussi Bjorling
Orchestra: Rome Opera House Orchestra
Conductor: Jonel Perlea
Recorded: July 1955
Running Time: 4 min. 58 sec.
02. Composer: Giacomo Puccini
Opera: Manon Lescaut, Act 1
Donna Non Vidi Mai
Performer: Jussi Bjorling
Orchestra: Rome Opera House Orchestra
Conductor: Jonel Perlea
Recorded: July 1955
Running Time: 2 min. 33 sec.
03. Composer: Giuseppe Verdi
Opera: Rigoletto, Act 3
La Donna E Mobile
Performer: Jussi Bjorling
Orchestra: Rome Opera House Orchestra
Conductor: Jonel Perlea
Recorded: ...
Running Time: 2 min. 14 sec.
04. Composer: Giuseppe Verdi
Opera: Rigoletto, Act 2
Ella Mi Fu Rapita; Parmi Veder Le Lagrime
Performer: Jussi Bjorling
Orchestra: Rome Opera House Orchestra
Conductor: Jonel Perlea
Recorded: June 1956
Running Time: 5 min. 32 sec.
05. Composer: Pietro Mascagni
Opera: Cavalleria rusticana
Siciliana: O Lola
Performer: Jussi Bjorling
Orchestra: RCA Orchestra
Conductor: Renato Cellini
Recorded: Jonuary 2, 1953
Running Time: 3 min. 27 sec.
06. Composer: Charles Gounod
Opera: Faust, Act 1
Salut, Demeure Chaste Et Pure
Performer: Jussi Bjorling
Orchestra: RCA Orchestra
Conductor: Renato Cellini
Recorded: ...
Running Time: 4 min. 56 sec.
07. Composer: Ruggero Leoncavallo
Opera: Pagliacci, Act 1
Vesti La Giubba
Performer: Jussi Bjorling
Orchestra: RCA Orchestra
Conductor: Renato Cellini
Recorded: March 9, 1951
Running Time: 3 min. 58 sec.
08. Composer: Giacomo Puccini
Opera: La boheme, Act 1
Che Gelida Manina
Performer: Jussi Bjorling
Orchestra: RCA Orchestra
Conductor: Renato Cellini
Recorded: January 13, 1951
Running Time: 5 min. 6 sec.
09. Composer: Alexander Borodin
Opera: Prince Igor, Act 3
Vladimir's Recitative And Cavatina
Performer: Jussi Bjorling
Orchestra: ...
Conductor: Nils Grevillius
Recorded: ...
Running Time: 4 min. 7 sec.
10. Composer: Umberto Giordano
Opera: Andrea Chenier, Act 4
Come Un Bel Di Di Maggio
Performer: Jussi Bjorling
Orchestra: ...
Conductor: Nils Grevillius
Recorded: ...
Running Time: 3 min. 37 sec.
11. Composer: Friedrich von Flotow
Opera: Martha, Act 3
M'appari Tutt'amor
Performer: Jussi Bjorling
Orchestra: ...
Conductor: Nils Grevillius
Recorded: ...
Running Time: 3 min. 46 sec.
12. Composer: Gaetano Donizetti
Opera: L'elisir d'amore, Act 2
Una Furtiva Lagrima
Performer: Jussi Bjorling
Orchestra: ...
Conductor: Nils Grevillius
Recorded: ...
Running Time: 4 min. 59 sec.
13. Composer: Pyotr Il'yich Tchaikovsky
Opera: Eugen Onegin, Act 2
Forbi, Forbi (Lensky's Aria)
Performer: Jussi Bjorling
Orchestra: ...
Conductor: Nils Grevillius
Recorded: January 22, 1957
Running Time: 6 min. 47 sec.
14. Composer: Giacomo Puccini
Opera: Turandot, Act 1
Non Piangere, Liu
Performers: Jussi Bjorling; Renata Tebaldi; Giorgio Tozzi
Orchestra: Rome Opera House Orchestra
Conductor: Erich Leinsdorf
Recorded: ...
Running Time: 2 min. 57 sec.
15. Composer: Giacomo Puccini
Opera: Turandot, Act 2
Nessun Dorma
Performer: Jussi Bjorling
Orchestra: Rome Opera House Orchestra
Conductor: Erich Leinsdorf
Recorded: July 1959
Running Time: 3 min. 27 sec.
16. Composer: Giacomo Puccini
Opera: Tosca, Act 1
Recondita Armonia
Performers: Jussi Bjorling; Fernando Corena (Bass)
Orchestra: Rome Opera House Orchestra
Conductor: Erich Leinsdorf
Recorded: ...
Running Time: 3 min. 3 sec.
17. Composer: Giacomo Puccini
Opera: Tosca, Act 3
E Lucevan Le Stelle
Performer: Jussi Bjorling
Orchestra: Rome Opera House Orchestra
Conductor: Erich Leinsdorf
Recorded: ...
Running Time: 3 min. 37 sec.
18. Composer: Giacomo Puccini
Opera: Tosca, Act 3
O Dolci Mani
Performer: Jussi Bjorling
Orchestra: Rome Opera House Orchestra
Conductor: Erich Leinsdorf
Recorded: July 1957
Running Time: 1 min. 45 sec.
Примечание: некоторые данные отсутствуют как на буклете, так и в сети (поставлено многоточие).

Исполнители

Performer:
Jussi Bjorling
Fernando Corena
Renata Tebaldi
Giorgio Tozzi
Conductor:
Erich Leinsdorf (tracks: 14-18),
Jonel Perlea (tracks: 1-4),
Nils Grevillius (tracks: 9-13),
Renato Cellini (tracks: 5-8)
Orchestra:
Rome Opera House Orchestra (tracks: 1-4, 14-18),
RCA Orchestra* (tracks: 5-8)

Лог создания рипа

Exact Audio Copy V1.0 beta 3 from 29. August 2011
EAC extraction logfile from 30. December 2015, 13:58
Jussi Bjoerling / Jussi Bjoerling - Operatic Arias
Used drive : Optiarc DVD RW AD-7593A Adapter: 3 ID: 0
Read mode : Secure
Utilize accurate stream : Yes
Defeat audio cache : Yes
Make use of C2 pointers : No
Read offset correction : 48
Overread into Lead-In and Lead-Out : No
Fill up missing offset samples with silence : Yes
Delete leading and trailing silent blocks : No
Null samples used in CRC calculations : Yes
Used interface : Native Win32 interface for Win NT & 2000
Used output format : User Defined Encoder
Selected bitrate : 896 kBit/s
Quality : High
Add ID3 tag : No
Command line compressor : H:\PORTABL-ALT\Exact Audio Copy 1_0 beta 3 Portable\Exact Audio Copy 1.0 beta 3 Portable\EAC_1.0_beta_3_Portable_Multilingual\App\EAC\FLAC\flac.exe
Additional command line options : -6 -V -T "ARTIST=%artist%" -T "TITLE=%title%" -T "ALBUM=%albumtitle%" -T "DATE=%year%" -T "TRACKNUMBER=%tracknr%" -T "GENRE=%genre%" -T "COMMENT=%comment%" %hascover%--picture="%coverfile%"%hascover% %source% -o %dest%
TOC of the extracted CD
Track | Start | Length | Start sector | End sector
---------------------------------------------------------
1 | 0:00.00 | 4:58.25 | 0 | 22374
2 | 4:58.25 | 2:33.03 | 22375 | 33852
3 | 7:31.28 | 2:14.07 | 33853 | 43909
4 | 9:45.35 | 5:31.48 | 43910 | 68782
5 | 15:17.08 | 3:27.37 | 68783 | 84344
6 | 18:44.45 | 4:56.15 | 84345 | 106559
7 | 23:40.60 | 3:57.63 | 106560 | 124397
8 | 27:38.48 | 5:06.05 | 124398 | 147352
9 | 32:44.53 | 4:07.07 | 147353 | 165884
10 | 36:51.60 | 3:36.45 | 165885 | 182129
11 | 40:28.30 | 3:45.63 | 182130 | 199067
12 | 44:14.18 | 4:59.30 | 199068 | 221522
13 | 49:13.48 | 6:46.62 | 221523 | 252034
14 | 56:00.35 | 2:58.10 | 252035 | 265394
15 | 58:58.45 | 3:27.18 | 265395 | 280937
16 | 62:25.63 | 3:03.02 | 280938 | 294664
17 | 65:28.65 | 3:36.68 | 294665 | 310932
18 | 69:05.58 | 1:45.17 | 310933 | 318824
Range status and errors
Selected range
Filename I:\Jussi Bjoerling - Operatic Arias\Jussi Bjoerling - Jussi Bjoerling - Operatic Arias.wav
Peak level 100.0 %
Extraction speed 4.8 X
Range quality 100.0 %
Test CRC 5B375271
Copy CRC 5B375271
Copy OK
No errors occurred
AccurateRip summary
Track 1 accurately ripped (confidence 3) [251AC807] (AR v2)
Track 2 accurately ripped (confidence 3) [C8E34EA8] (AR v2)
Track 3 accurately ripped (confidence 3) [FA5FF453] (AR v2)
Track 4 accurately ripped (confidence 3) [A059EBB2] (AR v2)
Track 5 accurately ripped (confidence 3) [8F361CFA] (AR v2)
Track 6 accurately ripped (confidence 3) [A96C5CFF] (AR v2)
Track 7 accurately ripped (confidence 3) [C86678B5] (AR v2)
Track 8 accurately ripped (confidence 3) [8EE69879] (AR v2)
Track 9 accurately ripped (confidence 3) [E244E26E] (AR v2)
Track 10 accurately ripped (confidence 3) [5CA1A155] (AR v2)
Track 11 accurately ripped (confidence 3) [5E78D00F] (AR v2)
Track 12 accurately ripped (confidence 3) [4CA35B35] (AR v2)
Track 13 accurately ripped (confidence 3) [521243AA] (AR v2)
Track 14 accurately ripped (confidence 3) [D65F7A31] (AR v2)
Track 15 accurately ripped (confidence 3) [13F845EC] (AR v2)
Track 16 accurately ripped (confidence 3) [3B102FDD] (AR v2)
Track 17 accurately ripped (confidence 3) [97115315] (AR v2)
Track 18 accurately ripped (confidence 3) [E2F7307E] (AR v2)
All tracks accurately ripped
End of status report
==== Log checksum 5C5CE8803142CCBF569B281FBBCBF9635A15D31501510DF4894BC735B1ADEC6A ====

Содержание индексной карты (.CUE)

REM GENRE Classical
REM DATE 1987
REM DISCID F5109B12
REM COMMENT "ExactAudioCopy v1.0b3"
PERFORMER "Jussi Bjoerling"
TITLE "Jussi Bjoerling - Operatic Arias"
FILE "Jussi Bjoerling - Jussi Bjoerling - Operatic Arias.flac" WAVE
TRACK 01 AUDIO
TITLE "Se Quel Guerriero Io Fossi - Aida"
PERFORMER "Jussi Bjoerling"
INDEX 01 00:00:00
TRACK 02 AUDIO
TITLE "Donna Non Vidi Mai - Manon Lescaut"
PERFORMER "Jussi Bjoerling"
INDEX 00 04:56:45
INDEX 01 04:58:25
TRACK 03 AUDIO
TITLE "La Donna E Mobile - Rigoletto"
PERFORMER "Jussi Bjoerling"
INDEX 00 07:29:43
INDEX 01 07:31:28
TRACK 04 AUDIO
TITLE "Ella mi fu rapita - Rigoletto"
PERFORMER "Jussi Bjoerling"
INDEX 00 09:42:13
INDEX 01 09:45:35
TRACK 05 AUDIO
TITLE "O Lola - Cavalleria Rusticana"
PERFORMER "Jussi Bjoerling"
INDEX 00 15:13:28
INDEX 01 15:17:08
TRACK 06 AUDIO
TITLE "Salut, Demeure Chaste Et Pure - Faust"
PERFORMER "Jussi Bjoerling"
INDEX 00 18:40:18
INDEX 01 18:44:45
TRACK 07 AUDIO
TITLE "Vesti La Giubba - Pagliacci"
PERFORMER "Jussi Bjoerling"
INDEX 00 23:38:23
INDEX 01 23:40:60
TRACK 08 AUDIO
TITLE "Che Gelida Manina - La Boheme"
PERFORMER "Jussi Bjoerling"
INDEX 00 27:34:60
INDEX 01 27:38:48
TRACK 09 AUDIO
TITLE "Vladimir's Recitative And Cavatina - Prince Igor"
PERFORMER "Jussi Bjoerling"
INDEX 00 32:41:40
INDEX 01 32:44:53
TRACK 10 AUDIO
TITLE "Come Un Bel Di Di Maggio - Andrea Chenier"
PERFORMER "Jussi Bjoerling"
INDEX 00 36:48:40
INDEX 01 36:51:60
TRACK 11 AUDIO
TITLE "M'appari Tutt'amor - Martha"
PERFORMER "Jussi Bjoerling"
INDEX 00 40:26:38
INDEX 01 40:28:30
TRACK 12 AUDIO
TITLE "Una Furtiva Lagrima - L'Elisir d'Amore"
PERFORMER "Jussi Bjoerling"
INDEX 00 44:10:35
INDEX 01 44:14:18
TRACK 13 AUDIO
TITLE "Forbi, Forbi (Lensky's Aria) - Eugen Onegin"
PERFORMER "Jussi Bjoerling"
INDEX 00 49:10:08
INDEX 01 49:13:48
TRACK 14 AUDIO
TITLE "Non Piangere - Turandot"
PERFORMER "Jussi Bjoerling"
INDEX 00 55:56:65
INDEX 01 56:00:35
TRACK 15 AUDIO
TITLE "Nessun Dorma - Turandot"
PERFORMER "Jussi Bjoerling"
INDEX 00 58:54:70
INDEX 01 58:58:45
TRACK 16 AUDIO
TITLE "Recondita Armonia - Tosca"
PERFORMER "Jussi Bjoerling"
INDEX 00 62:22:60
INDEX 01 62:25:63
TRACK 17 AUDIO
TITLE "E Lucevan Le Stelle - Tosca"
PERFORMER "Jussi Bjoerling"
INDEX 00 65:25:68
INDEX 01 65:28:65
TRACK 18 AUDIO
TITLE "O Dolci Mani - Tosca"
PERFORMER "Jussi Bjoerling"
INDEX 00 69:02:43
INDEX 01 69:05:58

Сканы в раздаче (300 px, 72 dpi)





Отдельно сканы самого диска (превью - увеличение по клику)

АЧХ и СПЕКТР (превью - увеличение по клику)


Доп. информация

SONOPRES B-7490/RD 85934 01
LC 0316
Red Seal
BIEM
GEMA
1987 RCA/Arioia International
Да-да, на диске именно та самая "Una Furtiva Lagrima" (в оцифрованном виде, конечно), которую Никита Михалков использовал в фильме"Неоконченная пьеса...". И, хотя, Jussi Bjoerling спел эту арию где-то в конце 40-вых, а действие фильма разворачивается примерно в начале 20 века, и петь должен был какой-нибудь Enrico Caruso... Но! - толи записи не подходили по качеству, толи ассистенты что-то напутали - и в результате получился гениальный фильм с гениальным музыкальным сопровождением (отдельное спасибо Э.Артемьеву).
Да и Jussi Bjoerling, как говорит молодеж, "порвал" итальянцев. Ибо нефиг выводить рулады и любоваться собой, а нужно перевоплощаться в образ. Что и сделал гениальный шведский тенор (станиславский и всё такое...).
P.s.: Когда-то Михалков был худой и талнтливый. "Неоконченная пьеса...", "Свой среди чужих...".
Да...
Но это всё лирика. А сейчас слушаем величайшего тенора 20 века: Юсси Бьёрлинга.



Показать сообщения:    

Текущее время: 04-Дек 17:15

Часовой пояс: UTC + 3


Вы не можете начинать темы
Вы не можете отвечать на сообщения
Вы не можете редактировать свои сообщения
Вы не можете удалять свои сообщения
Вы не можете голосовать в опросах
Вы не можете прикреплять файлы к сообщениям
Вы не можете скачивать файлы