Карлсон, который живет на крыше (Вячеслав Чуистов) [2014 г., сказка для детей, WEB-DLRip] Калининградский областной драматический театр


 

[Цитировать]

Карлсон, который живет на крыше Название театра: Калининградский областной драматический театр.
Год выпуска: 2014.
Жанр: сказка для детей.
Продолжительность: 01:24:08.
Режиссер-постановщик: Вячеслав Чуистов.
Действующие лица и исполнители:
Малыш - Денис Переберин,
Карлсон - Максим Пацерин,
Сванте Свантесон - заслуженный артист республики Марий Эл Александр Егоров,
Мама - Любовь Орлова,
Папа - Олег Яковенко,
Боссе (брат Малыша) - Антон Захаров,
Бетан (сестра Малыша) - Мария Авраменко,
Фрекен Бок - Юлия Докторова,
Дядя Юлиус - Алексей Грызунов,
Филле (опытный вор) - Геннадий Филиппович,
Рулле (начинающий вор) - Павел Сибиряков.
О спектакле:
Инсценировка Александра Югова по мотивам трилогии Астрид Линдгрен.
Режиссер-постановщик Вячеслав Чуистов о спектакле:
- Кальки мультфильма на сцене вы не увидите. Работа над сценарием проходила только после того, как мною были проштудированы все книги о Малыше и Карлсоне. И мы с коллегой, режиссером, драматургом Александром Юговым создали немного другую историю. В ней лично для меня есть очень важный персонаж - повзрослевший Малыш. От его лица идет рассказ. А еще я включил в спектакль историю Фрекен Бок. Как вы знаете, в версии Астрид Линдгрен она выходит замуж, с ней вообще происходят большие перемены. Но как и в книге, так и в мультфильме - в нашем спектакле Карлсон тоже будет летать.
История, которую мы предлагаем калининградским зрителям, будет интересна не только детям, но и их родителям. В детстве нам так легко фантазировать, мечтать, воображать, домысливать. А с возрастом это все куда-то исчезает. Но нужно мечтать. Пока живы в нас мечты, ничего не случится. В этом я абсолютно уверен!
(из интервью газете <Комсомольская правда>)

Дополнительная информация:
Страна: Россия .
Автор: Астрид Линдгрен.
Инсценировка: Александр Югов.
Художник-постановщик: Елена Соловьева.
Художник по свету: Семён Машаров.
Музыкальное оформление: заслуженный деятель искусств России Аркадий Фельдман.
Премьера спектакля состоялась 23 декабря 2014 года.

О спектакле.
Релиз
Рип sharky.

Качество видео:...WEB-DLRip
Формат:.................AVI
Видео:..704x400 (1.76:1), 25 fps, XviD build 47 ~1717 kbps avg, 0.24 bit/pixel
Аудио:..44.100 kHz, MPEG Layer 3, 2 ch, ~128.00 kbps avg

Отчет MI

Общее
Полное имя : Karlson.kotoryj.zhivyot.na.kryshe_Kaliningradskij.ODT.2014.XviD.WEB-DLRip.fenixclub.avi
Format : AVI
Format/Info : Audio Video Interleave
File size : 1.09 GiB
Duration : 1h 24mn
Overall bit rate : 1 855 Kbps
Writing application : VirtualDubMod 1.5.10.2 (build 2540/release)
Writing library : VirtualDubMod build 2540/release
Video
ID : 0
Format : MPEG-4 Visual
Format profile : Advanced Simple@L5
Format settings, BVOP : 1
Format settings, QPel : No
Format settings, GMC : No warppoints
Format settings, Matrix : Default (H.263)
Codec ID : XVID
Codec ID/Hint : XviD
Duration : 1h 24mn
Bit rate : 1 718 Kbps
Width : 704 pixels
Height : 400 pixels
Display aspect ratio : 16:9
Frame rate : 25.000 fps
Color space : YUV
Chroma subsampling : 4:2:0
Bit depth : 8 bits
Scan type : Progressive
Compression mode : Lossy
Bits/(Pixel*Frame) : 0.244
Stream size : 1.01 GiB (93%)
Writing library : XviD 1.2.0.dev47 (UTC 2006-11-01)
Audio
ID : 1
Format : MPEG Audio
Format version : Version 1
Format profile : Layer 3
Codec ID : 55
Codec ID/Hint : MP3
Duration : 1h 24mn
Bit rate mode : Constant
Bit rate : 128 Kbps
Channel(s) : 2 channels
Sampling rate : 44.1 KHz
Compression mode : Lossy
Stream size : 77.0 MiB (7%)
Alignment : Split accross interleaves
Interleave, duration : 40 ms (1.00 video frame)
Interleave, preload duratio : 500 ms
Writing library : LAME3.97
Encoding settings : -m s -V 4 -q 2 -lowpass 17 -b 128

Скриншоты


Альтернативный хост





Показать сообщения:    

Текущее время: 11-Дек 16:48

Часовой пояс: UTC + 3


Вы не можете начинать темы
Вы не можете отвечать на сообщения
Вы не можете редактировать свои сообщения
Вы не можете удалять свои сообщения
Вы не можете голосовать в опросах
Вы не можете прикреплять файлы к сообщениям
Вы не можете скачивать файлы