Silvester-Gala mit dem Munchner Rundfunkorchester (Verdi, Puccini, Rossini, Donizetti, Strauss, Lehar) Ivan Repusic, Golda Schultz, Sergey Skorokhodov / Сергей Скороходов [2015, Classical / Vocal / Orchestral, HDTV 720p]


 

[Цитировать]

Silvester-Gala
Golda Schultz • Sergey SkorokhodovMünchner Rundfunkorchester • Ivan Repušić

-
Год выпуска: 2015
Лейбл: Bayerischer Rundfunk
Жанр: Classical / Vocal / Orchestral
Продолжительность: 01:56:59
Язык: немецкий (Anna Greiter - moderation)
Режиссер: Elisabeth Malzer
Исполнители:
Golda Schultz - sopran
Sergey Skorokhodov / Сергей Скороходов - tenor
Münchner Rundfunkorchester
Ivan Repušić - leitung
Треклист:
Giuseppe Verdi
- Ouvertüre aus "La Forza del Destino"
- "Sul Fil d'un Soffio Etesio" Canzone Der Nannetta aus "Falstaff"
- "La donna e Mobile ..." arie des Herzogs aus "Rigoletto"
- "Un dì Felice, Eterea" duett Alfredo - Violetta aus "La Traviata"
Giocomo Puccini
- Intermezzo aus "Manon Lescaut"
- "Che Gelida Manina" arie des Rodolfo aus "La Bohème"
- "Si, Mi Chiamano Mimi" arie dem Mimi aus "La Bohème"
- "O Soave Fanciulla" duett Rodolfo - Mimi aus "La Bohème"
Gioachino Rossini - Ouvertüre zu "Il Barbiere di Siviglia"
Gaëtano Donizetti - "Une Furtiva Lagrima" romanze des Nemorino aus "L'elisir d'Amore"
Giocomo Puccini
- "Chi Il Bel Sogno di Doretta" arie der Magda aus "La Rondine"
- "E Lucevan Le Stelle" arie des Cavaradossi aus "Tosca"
Johann Strauss
- Ouvertüre zu "Die Fledermaus"
- "Klänge der Heimat" Csárdás der Rosalinde aus "Die Fledermaus"
Franz Lehár
- "Dein ist mein Ganzes Herz" arie des sou-chong aus "Das Land des Lächelns"
- "Lippen Schweigen" duett Hanna - Danilo aus "Die Lustige witwe"
- "Maine Lippen sie Küssen So Heiss" arie der Giuditta aus "Giuditta"
Ernesto De Curtis - "Torna a Surriento"
Giuseppe Verdi - "Libiamo, Libiamo ne' Lieti Calici" trinklied aus "La Traviata"
Доп. информация:
Das Münchner Rundfunkorchester live aus dem Herkulessaal, 31.12.2015
Italienische Operngala zu Silvester br-klassik.de
Golda Schultz from Wikipedia, the free encyclopedia
Sergey Skorokhodov mariinsky.ru
Ivan Repušić Official Site
Качество видео: HDTV 720p
Контейнер: TS
Видео кодек: H.264
Аудио кодек: AC3
Видео поток: 11.4 Mbps, 1280*720 (16:9), at 50.000 fps, AVC (High@L4.0) (CABAC / 4 Ref Frames)
Аудио поток: German, 192 Kbps, 48.0 KHz, 2 channels, MPEG Audio (Version 1) (Layer 2)
Аудио 2: 192 Kbps, 48.0 KHz, 2 channels, MPEG Audio (Version 1) (Layer 2)
Аудио 3: German, 448 Kbps, 48.0 KHz, 16 bits, 5 channels, AC-3
Источник: Digital Satellite > SkyStar HD2 (TechniSat) > raw data to HDD > Cypheros TS-Doctor > Smart Cutter (cut) > ts

MediaInfo

General
ID : 8900 (0x22C4)
Complete name : C:\rutracker.org_HD\BR HD_Silvester-Gala mit dem Munchner Rundfunkorchester (Ivan Repusic) 2015.ts
Format : MPEG-TS
File size : 10.5 GiB
Duration : 1h 56mn
Overall bit rate mode : Variable
Overall bit rate : 12.9 Mbps
Video
ID : 5201 (0x1451)
Menu ID : 10326 (0x2856)
Format : AVC
Format/Info : Advanced Video Codec
Format profile : High@L4.0
Format settings, CABAC : Yes
Format settings, ReFrames : 4 frames
Format settings, GOP : M=8, N=32
Codec ID : 27
Duration : 1h 56mn
Bit rate : 11.4 Mbps
Width : 1 280 pixels
Height : 720 pixels
Display aspect ratio : 16:9
Frame rate : 50.000 fps
Color space : YUV
Chroma subsampling : 4:2:0
Bit depth : 8 bits
Scan type : Progressive
Bits/(Pixel*Frame) : 0.248
Stream size : 9.31 GiB (89%)
Audio #1
ID : 5202 (0x1452)
Menu ID : 10326 (0x2856)
Format : MPEG Audio
Format version : Version 1
Format profile : Layer 2
Codec ID : 3
Duration : 1h 56mn
Bit rate mode : Constant
Bit rate : 192 Kbps
Channel(s) : 2 channels
Sampling rate : 48.0 KHz
Compression mode : Lossy
Delay relative to video : -12ms
Stream size : 160 MiB (1%)
Language : German
Audio #2
ID : 5203 (0x1453)
Menu ID : 10326 (0x2856)
Format : MPEG Audio
Format version : Version 1
Format profile : Layer 2
Codec ID : 3
Duration : 1h 56mn
Bit rate mode : Constant
Bit rate : 192 Kbps
Channel(s) : 2 channels
Sampling rate : 48.0 KHz
Compression mode : Lossy
Delay relative to video : -12ms
Stream size : 160 MiB (1%)
Audio #3
ID : 5206 (0x1456)
Menu ID : 10326 (0x2856)
Format : AC-3
Format/Info : Audio Coding 3
Mode extension : CM (complete main)
Format settings, Endianness : Big
Codec ID : 6
Duration : 1h 56mn
Bit rate mode : Constant
Bit rate : 448 Kbps
Channel(s) : 5 channels
Channel positions : Front: L C R, Side: L R
Sampling rate : 48.0 KHz
Bit depth : 16 bits
Compression mode : Lossy
Delay relative to video : -3ms
Stream size : 373 MiB (3%)
Language : German



Показать сообщения:    

Текущее время: 05-Дек 05:30

Часовой пояс: UTC + 3


Вы не можете начинать темы
Вы не можете отвечать на сообщения
Вы не можете редактировать свои сообщения
Вы не можете удалять свои сообщения
Вы не можете голосовать в опросах
Вы не можете прикреплять файлы к сообщениям
Вы не можете скачивать файлы