Новогодний концерт Венского филармонического оркестра 2015 / Neujahrskonzert der Wiener Philharmoniker 2015 [2015, Classical, BDRip]


Статистика раздачи [Обновить пиров]
Размер:  2.05 GB   |    Зарегистрирован:  8 месяцев 14 дней   |    Скачан:  2 раза

Полного источника не было: 6 дней

 
   
 
 
 

[Цитировать]

Новогодний концерт Венского филармонического оркестра 2015 / Neujahrskonzert der Wiener Philharmoniker 2015
Год выпуска: 2015
Выпущено: Австрия, США | ORF, Sony BMG Music Entertainm
Жанр: Classical / Orchestral
Продолжительность: 01:55:09
Язык: Немецкий / German
Перевод: Нет
Субтитры: Нет
Режиссёр: Майкл Бейер / Michael Beyer
Исполнители: Венский филармонический оркестр / Wiener Philharmoniker
Дирижёр: Зубин Мета / Zubin Mehta
Описание: Ежегодный Новогодний концерт Венского филармонического оркестра по праву считается одним из крупнейших мировых музыкальных событий года. Это мероприятие, открывающее европейский музыкальный календарь, вызывает огромный резонанс во всем мире. И это не случайно. К концерту готовятся долго: знаменитый Золотой зал Венского общества друзей музыки (Musikverein), куда съезжается аристократическая публика со всего мира, украшают живыми цветами лучшие флористы Европы, тщательно подбирается репертуар, в котором по традиции неизменно звучат произведения знаменитых венских композиторов из семьи Штраусов – вальсы, мазурки, польки, галопы, марши. И, конечно, три обязательных "биса", один из которых публика ждет с особым нетерпением, ведь в исполнении "Марша Радецкого" Иоганна Штрауса-отца участвуют не только музыканты, находящиеся на сцене, но и сами зрители. Дирижировать Венским филармоническим оркестром в этот день – огромная честь.
Качество видео: BDRip [Исходник: Vienna Philharmonic New Year's Concert (2015) Blu-ray 1080i AVC DTS-HD 5.1]
Формат/Контейнер: AVI
Видео кодек: XviD
Аудио кодек: AC3
Видео поток: XviD, 720x400 (16:9), 2087 Кбит/с, 29,970 кадр/с, 0.242 bit/pixel
Аудио поток: Немецкий, Dolby AC3, 48000 Гц, 448 Кбит/с, 6 каналов (5.1)

Автор рипа - ivandubskoj

Треклист

01. Opening Credits (1:10)
02. Ein Morgen, ein Mittag, ein Abend in Wien: Ouvertüre (8:42) - Franz von Suppe (1819-1895)
03. Märchen aus dem Orient, Walzer, Op. 444 (8:05) - Strauss, Johann, Jr. (1825-1899)
04. Wiener Leben, Polka française, Op. 218 (3:31) - Josef Strauss (1827-1870)
05. Wo man lacht und lebt, Polka schnell, Op. 108 (2:21) - Eduard Strauss (1835-1916)
06. Dorfschwalben aus Österreich, Walzer, Op. 164 (9:02) - Josef Strauss
07. Vom Donaustrande, Polka schnell, Op. 356 (3:59) - Strauss, Johann, Jr.
08. Perpetuum mobile, Op. 257 (3:19) - Strauss, Johann, Jr.
09. Accelerationen, Walzer, Op. 234 (9:23) - Strauss, Johann, Jr.
10. Elektro-magnetische Polka, Op. 110 (3:02) - Strauss, Johann, Jr.
11. Mit Dampf, Polka schnell, Op. 70 (2:24) - Eduard Strauss
12. Wiener Philharmoniker: An der Elbe, Walzer, Op. 477 (9:42) - Strauss, Johann, Jr.
13. Champagner-Galopp (3:12) - Hans Christian Lumbye (1810-1874)
14. Studenten-Polka, Op. 263 (4:05) - Strauss, Johann, Jr.
15. Freiheits-Marsch, Op. 226 (2:57) - Strauss, Johann, Sr. (1804-1849)
16. Annen-Polka, Op. 117 (4:28) - Strauss, Johann, Jr.
17. Wein, Weib und Gesang, Walzer, Op. 333 (10:27) - Strauss, Johann, Jr.
18. Mit Chic, Polka schnell, Op. 221 (2:48) - Eduard Strauss
19. Explosions-Polka, Op. 43 (2:58) - Strauss, Johann, Jr.
20. Neujahrsgruß / New Year's Address / Allocution du Nouvel An (0:43)
21. An der schönen blauen Donau, Op. 314 (12:13) - Strauss, Johann, Jr.
22. Radetzky-Marsch, Op. 228 (4:44) - Strauss, Johann, Sr.
23. End Credits (1:42)

MediaInfo

General
Complete name : Neujahrskonzert.der.Wiener.Philarmoniker.2015.BDRip.avi
Format : AVI
Format/Info : Audio Video Interleave
Format profile : OpenDML
File size : 2.05 GiB
Duration : 1h 55mn
Overall bit rate : 2 550 Kbps
Writing application : VirtualDubMod 1.5.10.3 | www.virtualdub-fr.org || (build 2550/release)
Writing library : VirtualDubMod build 2550/release
Copyright : rip by ivandubskoj
Video
ID : 0
Format : MPEG-4 Visual
Format profile : Advanced Simple@L5
Format settings, BVOP : 1
Format settings, QPel : No
Format settings, GMC : No warppoints
Format settings, Matrix : Default (MPEG)
Codec ID : XVID
Codec ID/Hint : XviD
Duration : 1h 55mn
Bit rate : 2 087 Kbps
Width : 720 pixels
Height : 400 pixels
Display aspect ratio : 16:9
Frame rate : 29.970 fps
Color space : YUV
Chroma subsampling : 4:2:0
Bit depth : 8 bits
Scan type : Progressive
Compression mode : Lossy
Bits/(Pixel*Frame) : 0.242
Stream size : 1.68 GiB (82%)
Writing library : XviD 73
Audio
ID : 1
Format : AC-3
Format/Info : Audio Coding 3
Mode extension : CM (complete main)
Codec ID : 2000
Duration : 1h 55mn
Bit rate mode : Constant
Bit rate : 448 Kbps
Channel(s) : 6 channels
Channel positions : Front: L C R, Side: L R, LFE
Sampling rate : 48.0 KHz
Bit depth : 16 bits
Compression mode : Lossy
Stream size : 369 MiB (18%)
Alignment : Split accross interleaves
Interleave, duration : 33 ms (1.00 video frame)
Interleave, preload duration : 500 ms

Скриншоты

[teatrix.ru].t22804.torrent 
Торрент: Зарегистрирован [ 2016-03-21 00:45 ] · 25BE192DBFC9B87C540E2ECE06EE5CF88A6958DE

Скачать .torrent

Скачать

11 KB

Статус: проверено
Скачан: 2 раз
Размер: 2.05 GB
terms.php



Быстрый ответ

Имя:

      
Для отправки сообщений необходимо включить JavaScript
Показать сообщения:    

Текущее время: 04-Дек 02:49

Часовой пояс: UTC + 3


Вы можете начинать темы
Вы можете отвечать на сообщения
Вы не можете редактировать свои сообщения
Вы не можете удалять свои сообщения
Вы не можете голосовать в опросах
Вы не можете прикреплять файлы к сообщениям
Вы можете скачивать файлы