45 лет / 45 Years (Эндрю Хэй / Andrew Haigh) [2015, Великобритания, драма, мелодрама, HDRip] MVO + Sub Rus + Original Eng


 

[Цитировать]

45 лет / 45 Years
Страна: Великобритания
Жанр: драма, мелодрама
Год выпуска: 2015
Продолжительность: 01:34:38
Перевод: Профессиональный (многоголосый закадровый)
Cубтитры: русские
Оригинальная аудиодорожка: английский
Режиссер: Эндрю Хэй / Andrew Haigh
В ролях: Шарлотта Рэмплинг, Том Кортни, Долли Уэллс, Джеральдин Джеймс, Ханна Чалмерс, Мишель Финч, Ричард Каннингэм, Руфус Райт, Дэвид Сибли, Сэм Александр
Описание: Кейт и Джефф Меркеры готовятся отметить 45-летнюю годовщину свадьбы. Они так давно вместе и так близки друг другу, что кажется, будто прожили одну жизнь на двоих. Но оказалось, что это не так. Кейт не знала, что за несколько лет до встречи с ней у Джеффа была другая любимая. Во время их путешествия в Швейцарских Альпах она погибла, сорвавшись со скалы. И вот теперь, за неделю до большого торжества, в дом Меркеров пришло письмо с сообщением о том, что ее тело нашли в ледяной пропасти...
Берлинский кинофестиваль, 2015 год
Победитель (2):
Серебряный Медведь за лучшую мужскую роль ( Том Кортни )
Серебряный Медведь за лучшую женскую роль ( Шарлотта Рэмплинг )
Номинации: Золотой Медведь


Сэмпл: http://multi-up.com/1083898
Качество видео: HDRip
Формат видео: AVI
Видео: 720x384 (1.88:1), 23.976 fps, DivX Codec 6.8.5/6.9.1 ~1601 kbps avg, 0.24 bit/pixe
Аудио: 48 kHz, AC3 Dolby Digital, 2/0 (L,R) ch, ~192 kbps (русский)
Аудио 2: 48 kHz, AC3 Dolby Digital, 3/2 (L,C,R,l,r) + LFE ch, ~384 kbps (английский)
Формат субтитров: softsub (SRT)

MediaInfo

Общее
Полное имя : D:\45.Years_2015.HDRip\45.Years_2015.HDRip.avi
Формат : AVI
Формат/Информация : Audio Video Interleave
Размер файла : 1,45 Гбайт
Продолжительность : 1 ч. 34 м.
Общий поток : 2191 Кбит/сек
Программа кодирования : VirtualDubModRus 1.5.10.2 (build 2542/release)
Библиотека кодирования : VirtualDubMod build 2542/release
Видео
Идентификатор : 0
Формат : MPEG-4 Visual
Параметр BVOP формата : Да
Параметр QPel формата : Нет
Параметр GMC формата : Без точки перехода
Параметр матрицы формата : Default (H.263)
Идентификатор кодека : DX50
Идентификатор кодека/Подсказка : DivX 5
Продолжительность : 1 ч. 34 м.
Битрейт : 1601 Кбит/сек
Ширина : 720 пикселей
Высота : 384 пикселя
Соотношение сторон : 1,85:1
Частота кадров : 23,976 кадра/сек
Цветовое пространство : YUV
Субдискретизация насыщенности : 4:2:0
Битовая глубина : 8 бит
Тип развёртки : Прогрессивная
Метод сжатия : С потерями
Бит/(Пиксели*Кадры) : 0.242
Размер потока : 1,06 Гбайт (73%)
Библиотека кодирования : DivX 6.8.5 (UTC 2009-08-20)
Аудио #1
Идентификатор : 1
Формат : AC-3
Формат/Информация : Audio Coding 3
Расширение режима : CM (complete main)
Параметр Endianness формата : Big
Идентификатор кодека : 2000
Продолжительность : 1 ч. 34 м.
Вид битрейта : Постоянный
Битрейт : 192 Кбит/сек
Каналы : 2 канала
Расположение каналов : Front: L R
Частота : 48,0 КГц
Частота кадров : 31,250 кадров/сек (1536 spf)
Метод сжатия : С потерями
Задержка видео : 21 мс.
Размер потока : 130 Мбайт (9%)
Выравнивание : Разделение по промежуткам
Продолжительность промежутка : 42 мс. (1,00 видеокадр)
Время предзагрузки промежутка : 500 мс.
Аудио #2
Идентификатор : 2
Формат : AC-3
Формат/Информация : Audio Coding 3
Расширение режима : CM (complete main)
Параметр Endianness формата : Big
Идентификатор кодека : 2000
Продолжительность : 1 ч. 34 м.
Вид битрейта : Постоянный
Битрейт : 384 Кбит/сек
Каналы : 6 каналов
Расположение каналов : Front: L C R, Side: L R, LFE
Частота : 48,0 КГц
Частота кадров : 31,250 кадров/сек (1536 spf)
Метод сжатия : С потерями
Задержка видео : 21 мс.
Размер потока : 260 Мбайт (18%)
Выравнивание : Разделение по промежуткам
Продолжительность промежутка : 42 мс. (1,00 видеокадр)
Время предзагрузки промежутка : 500 мс.

Скриншот c названием фильма

Файл перезалит 18:08 12.01.2016г. Прошу перекачать торрент файл и извинить за доставленные неудобства!



Показать сообщения:    

Текущее время: 06-Дек 18:58

Часовой пояс: UTC + 3


Вы не можете начинать темы
Вы не можете отвечать на сообщения
Вы не можете редактировать свои сообщения
Вы не можете удалять свои сообщения
Вы не можете голосовать в опросах
Вы не можете прикреплять файлы к сообщениям
Вы не можете скачивать файлы