Манхэттенский фестиваль короткометражного кино 2014 / The Manhattan Short Film Festival 2014 [2014 г., сборник, к/м, HDRip] Sub Rus


Статистика раздачи [Обновить пиров]
Размер:  2.82 GB   |    Зарегистрирован:  8 месяцев 20 дней   |    Скачан:  2 раза

Полного источника не было: 2 дня 2 часа

 
   
 
 
 

[Цитировать]

Манхэттенский фестиваль короткометражного кино 2014 /
The Manhattan Short Film Festival 2014

Страна: США,Великобритания, Австралия, Мексика, Нидерланды, Норвегия, Франция, Германия
Жанр: короткий метр
Год выпуска: 2014
Продолжительность: 02:10:20
Перевод: Субтитры
Cубтитры: русские
Формат субтитров: hardsub (неотключаемые)
Режиссер: Ben Brand,Alix Lambert & Sam Chou,Elena Fuller,James Croke, Andreas Thaulow, Thierry Lorenzi, Josh Soskin, Bexie Bush, Moon Molson, Erik Schmitt
В ролях: Самера Люкман-Харрис, Дин Л. Келли, Крис Тестер и другие
Описание: ПРОГРАММА МАНХЭТТЕНСКОГО ФЕСТИВАЛЯ КОРОТКОМЕТРАЖНОГО КИНО 2014:
№1. 97%
Воспользовавшись мобильным приложением на своем телефоне, Берт выясняет, что девушка его мечты где-то рядом. Успеет ли он найти ее прежде, чем поезд достигнет конечной станции метро?
№2. Преступность. Анимационный сериал / Crime: The Animated Series
Преступники и их жертвы рассказывают о разрушениях, которые сеет преступность, в документальной анимации, выполненной в стиле графического романа.
Анимационный мини-сериал «Преступность» основан на одноименной книге Аликс Ламберт, состоящей из интервью с писателями, сценаристами, режиссерами, исследующими криминальный мир, и с настоящими преступниками. Вовлекая в действие грабителей банков, полицейских, жертв и наблюдателей, «Преступность» предлагает вниманию зрителей собрание уникальных точек зрения на тему, которая никогда не перестанет интересовать человечество. Этот смелый, резкий и захватывающий документальный мини-сериал показывает, как преступность влияет на всех нас, и берет за живое не меньше, чем любой триллер.
№3. На мосту / On the Bridge
Как-то ночью, пересекая мост Ватерлоо, офисный работник Мэттью знакомится с потрясающим его воображение человеком — Дэнни, солдатом, призванным на задание. Случайная встреча превращается в событие, которое изменит жизнь героев навсегда, в этой комической истории о храбрости и мужестве в современном мире, основанной на реальных событиях.
№4. Уловка / Shift
После серии спорных экспериментов Адам, некогда восходящая звезда научного сообщества, оказывается без денег и с испорченной репутацией. Полный решимости доказать свою гениальность и заставить замолчать своих критиков, Адам планирует идеальное ограбление.
Интервью с режиссером Джеймсом Кроуком
№5. Падение / The Fall
Агнес и Рагнар решают взобраться на гору в Северной Норвегии. В ситуации, чреватой смертельным исходом, когда доверие является абсолютной необходимостью, их отношения подвергаются испытанию после того, как Агнес узнает грязный секрет Рагнара.
Интервью с режиссером Андреасом Тауловым
№6. Включить и выключить / On/Off
Загадочная аудиозапись превращает выход астронавта в открытый космос в опасную для жизни миссию.
№7. Живая наживка / La Carnada
Тринадцатилетний мальчик из Тихуаны отправляется в свое первое путешествие с контрабандным грузом наркотиков по печально известной «Дороге дьявола», смертельно опасному участку пустыни на границе штата Аризона и Мексики.
№8. Платье из занавески / Mend and Make Do
Чашечку чаю? Приглашаем вас в уютную гостиную Лин, где вы сможете услышать историю ее любви, полную надежд, юмора и печали. Одновременно документальный фильм и анимация, «Платье из занавески» — это рассказ настоящей женщины по имени Лин Скофилд, жительницы городка Саутпорт, женщины, чьи истории никогда не наскучивают.
№9. Самые храбрые, самые смелые / The Bravest, The Boldest
Два армейских офицера, доставляющие извещения о гибели военнослужащих, прибывают в Гарлем и оказываются в муниципальном доме для малоимущих семей. Они должны встретиться с женщиной, сын которой участвует в боевых действиях на Ближнем Востоке. Но что бы ни собирались они ей сказать, она отказывается это слышать.
№10. Носорог на полной скорости / Rhino Full Throttle
Бруно гуляет по Берлину в поисках души города. Движимый любопытством, развитым воображением и фантастическими размышлениями о природе реальности, он приподнимает старую пыльную завесу устоявшегося восприятия города. Бруно собирает по дороге образы, пространства и поверхности, показывая нам город, каким мы его никогда не видели.
Сэмпл: http://multi-up.com/1067706
Качество видео: HDRip
Формат видео: AVI
Видео: H264,1998x1080,1.85:1,25.000 fps, 2 766 Kbps
Аудио: MP3,320 Kbps,48.0 KHz

MediaInfo

Format : AVI
Format/Info : Audio Video Interleave
Format profile : OpenDML
File size : 2.82 GiB
Duration : 2h 10mn
Overall bit rate : 3 097 Kbps
Writing library : VirtualDub build 35491/release
Video
ID : 0
Format : AVC
Format/Info : Advanced Video Codec
Format profile : High@L4.2
Format settings, CABAC : Yes
Format settings, ReFrames : 4 frames
Codec ID : H264
Duration : 2h 10mn
Bit rate : 2 766 Kbps
Width : 1 998 pixels
Height : 1 080 pixels
Display aspect ratio : 1.85:1
Frame rate : 24.000 fps
Original frame rate : 25.000 fps
Color space : YUV
Chroma subsampling : 4:2:0
Bit depth : 8 bits
Scan type : Progressive
Bits/(Pixel*Frame) : 0.053
Stream size : 2.52 GiB (89%)
Writing library : x264 core 142 r2453bm
Audio
ID : 1
Format : MPEG Audio
Format version : Version 1
Format profile : Layer 3
Mode : Joint stereo
Codec ID : 55
Codec ID/Hint : MP3
Duration : 2h 10mn
Bit rate mode : Constant
Bit rate : 320 Kbps
Channel(s) : 2 channels
Sampling rate : 48.0 KHz
Compression mode : Lossy
Delay relative to video : 1s 900ms
Stream size : 298 MiB (10%)
Alignment : Split accross interleaves
Interleave, duration : 42 ms (1.00 video frame)
Interleave, preload duration : 500 ms
Writing library : LAME3.99.5

Скриншоты


[teatrix.ru].t22807.torrent 
Торрент: Зарегистрирован [ 2016-03-21 00:44 ] · 29CBCEAA0CC64B35F7DD88BFA7F7B36ADEF97FBE

Скачать .torrent

Скачать

15 KB

Статус: проверено
Скачан: 2 раз
Размер: 2.82 GB
terms.php



Быстрый ответ

Имя:

      
Для отправки сообщений необходимо включить JavaScript
Показать сообщения:    

Текущее время: 10-Дек 06:05

Часовой пояс: UTC + 3


Вы можете начинать темы
Вы можете отвечать на сообщения
Вы не можете редактировать свои сообщения
Вы не можете удалять свои сообщения
Вы не можете голосовать в опросах
Вы не можете прикреплять файлы к сообщениям
Вы можете скачивать файлы