(Classical/Orchestral) Shostakovich / Шостакович: Chamber Symphonies / Камерные симфонии, Opp, 76a, 110a, & 118a [arr. Rudolf Barshai / Баршай] (The Dmitri Ensemble • Graham Ross) - 2015, FLAC (tracks+.cue) lossless


 

[Цитировать]

The Dmitri Ensemble • Graham Ross — Dmitri Shostakovich: Chamber Symphonies, Opp, 76a, 110a, & 118a (arr. Rudolf Barshai)-Classical/Orchestral • Harmonia Mundi • HMU907634 • 2015 • lossless • FLAC • tracks+.cue • 01:04:24 • what.cd-01-05. Chamber Symphony in C minor, Op. 110a
06-09. Chamber Symphony No. 5 for Strings in A flat major, Op. 118a (orch.Barshai)
10-13. Chamber Symphony in C Major, Op. 49a
-The Dmitri Ensemble || Graham Ross - conductor-

cue

REM GENRE Classical
REM DATE 2015
REM DISCID A00F180D
REM COMMENT "ExactAudioCopy v1.0b3"
PERFORMER "The Dmitri Ensemble - Graham Ross"
TITLE "Shostakovich - Chamber Symphonies [HMU 907634]"
FILE "01 - Chamber Symphony, op. 110a - I. Largo (attaca).wav" WAVE
TRACK 01 AUDIO
TITLE "Chamber Symphony, op. 110a - I. Largo (attaca)"
PERFORMER "The Dmitri Ensemble - Graham Ross"
INDEX 01 00:00:00
TRACK 02 AUDIO
TITLE "II. Allegro molto (attaca)"
PERFORMER "The Dmitri Ensemble - Graham Ross"
INDEX 00 05:16:31
FILE "02 - II. Allegro molto (attaca).wav" WAVE
INDEX 01 00:00:00
TRACK 03 AUDIO
TITLE "III. Allegretto (attaca)"
PERFORMER "The Dmitri Ensemble - Graham Ross"
INDEX 00 03:04:23
FILE "03 - III. Allegretto (attaca).wav" WAVE
INDEX 01 00:00:00
TRACK 04 AUDIO
TITLE "IV. Largo (attaca)"
PERFORMER "The Dmitri Ensemble - Graham Ross"
INDEX 00 04:48:29
FILE "04 - IV. Largo (attaca).wav" WAVE
INDEX 01 00:00:00
TRACK 05 AUDIO
TITLE "V. Largo"
PERFORMER "The Dmitri Ensemble - Graham Ross"
INDEX 00 05:13:64
FILE "05 - V. Largo.wav" WAVE
INDEX 01 00:00:00
TRACK 06 AUDIO
TITLE "Chamber Symphony, op. 49a - I. Moderato"
PERFORMER "The Dmitri Ensemble - Graham Ross"
INDEX 00 04:05:52
FILE "06 - Chamber Symphony, op. 49a - I. Moderato.wav" WAVE
INDEX 01 00:00:00
TRACK 07 AUDIO
TITLE "II. Moderato"
PERFORMER "The Dmitri Ensemble - Graham Ross"
INDEX 00 04:50:29
FILE "07 - II. Moderato.wav" WAVE
INDEX 01 00:00:00
TRACK 08 AUDIO
TITLE "III. Allegro molto"
PERFORMER "The Dmitri Ensemble - Graham Ross"
INDEX 00 04:36:58
FILE "08 - III. Allegro molto.wav" WAVE
INDEX 01 00:00:00
TRACK 09 AUDIO
TITLE "IV. Allegro"
PERFORMER "The Dmitri Ensemble - Graham Ross"
INDEX 00 02:31:34
FILE "09 - IV. Allegro.wav" WAVE
INDEX 01 00:00:00
TRACK 10 AUDIO
TITLE "Chamber Symphony, op. 118a - I. Andante"
PERFORMER "The Dmitri Ensemble - Graham Ross"
INDEX 00 03:34:64
FILE "10 - Chamber Symphony, op. 118a - I. Andante.wav" WAVE
INDEX 01 00:00:00
TRACK 11 AUDIO
TITLE "II. Allegretto furioso"
PERFORMER "The Dmitri Ensemble - Graham Ross"
INDEX 00 05:02:19
FILE "11 - II. Allegretto furioso.wav" WAVE
INDEX 01 00:00:00
TRACK 12 AUDIO
TITLE "III. Adagio"
PERFORMER "The Dmitri Ensemble - Graham Ross"
INDEX 00 04:19:70
FILE "12 - III. Adagio.wav" WAVE
INDEX 01 00:00:00
TRACK 13 AUDIO
TITLE "IV. Allegretto"
PERFORMER "The Dmitri Ensemble - Graham Ross"
INDEX 00 06:10:17
FILE "13 - IV. Allegretto.wav" WAVE
INDEX 01 00:00:00

EAC

Exact Audio Copy V1.0 beta 3 from 29. August 2011
EAC extraction logfile from 14. November 2015, 17:14
The Dmitri Ensemble - Graham Ross / Shostakovich - Chamber Symphonies [HMU 907634]
Used drive : HL-DT-STDVD+-RW GT30N Adapter: 0 ID: 1
Read mode : Secure
Utilize accurate stream : Yes
Defeat audio cache : Yes
Make use of C2 pointers : No
Read offset correction : 103
Overread into Lead-In and Lead-Out : No
Fill up missing offset samples with silence : Yes
Delete leading and trailing silent blocks : No
Null samples used in CRC calculations : Yes
Used interface : Native Win32 interface for Win NT & 2000
Gap handling : Appended to previous track
Used output format : User Defined Encoder
Selected bitrate : 128 kBit/s
Quality : High
Add ID3 tag : No
Command line compressor : C:\Program Files (x86)\Exact Audio Copy\Flac\flac.exe
Additional command line options : -8 -V -T "ARTIST=%artist%" -T "TITLE=%title%" -T "ALBUM=%albumtitle%" -T "DATE=%year%" -T "TRACKNUMBER=%tracknr%" -T "GENRE=%genre%" -T "PERFORMER=%albuminterpret%" -T "COMPOSER=%composer%" %haslyrics%--tag-from-file=LYRICS="%lyricsfile%"%haslyrics% -T "ALBUMARTIST=%albumartist%" -T "DISCNUMBER=%cdnumber%" -T "TOTALDISCS=%totalcds%" -T "TOTALTRACKS=%numtracks%" -T "COMMENT=%comment%" %source% -o %dest%
TOC of the extracted CD
Track | Start | Length | Start sector | End sector
---------------------------------------------------------
1 | 0:00.00 | 5:16.39 | 0 | 23738
2 | 5:16.39 | 3:04.36 | 23739 | 37574
3 | 8:21.00 | 4:48.41 | 37575 | 59215
4 | 13:09.41 | 5:14.10 | 59216 | 82775
5 | 18:23.51 | 4:12.40 | 82776 | 101715
6 | 22:36.16 | 4:53.60 | 101716 | 123750
7 | 27:30.01 | 4:39.44 | 123751 | 144719
8 | 32:09.45 | 2:35.23 | 144720 | 156367
9 | 34:44.68 | 3:39.74 | 156368 | 172866
10 | 38:24.67 | 5:03.56 | 172867 | 195647
11 | 43:28.48 | 4:23.20 | 195648 | 215392
12 | 47:51.68 | 6:10.43 | 215393 | 243185
13 | 54:02.36 | 10:21.39 | 243186 | 289799
Track 1
Filename C:\FLACs\Shostakovich - Chamber Symphonies [HMU 907634]\01 - Chamber Symphony, op. 110a - I. Largo (attaca).wav
Pre-gap length 0:00:02.00
Peak level 58.7 %
Extraction speed 1.3 X
Track quality 100.0 %
Test CRC 8199621E
Copy CRC 8199621E
Accurately ripped (confidence 1) [D084695C] (AR v2)
Copy OK
Track 2
Filename C:\FLACs\Shostakovich - Chamber Symphonies [HMU 907634]\02 - II. Allegro molto (attaca).wav
Pre-gap length 0:00:00.10
Peak level 93.7 %
Extraction speed 1.3 X
Track quality 100.0 %
Test CRC D5CCADA7
Copy CRC D5CCADA7
Accurately ripped (confidence 1) [00850F94] (AR v2)
Copy OK
Track 3
Filename C:\FLACs\Shostakovich - Chamber Symphonies [HMU 907634]\03 - III. Allegretto (attaca).wav
Pre-gap length 0:00:00.17
Peak level 78.3 %
Extraction speed 1.5 X
Track quality 100.0 %
Test CRC C73CB6E0
Copy CRC C73CB6E0
Accurately ripped (confidence 1) [61B020D7] (AR v2)
Copy OK
Track 4
Filename C:\FLACs\Shostakovich - Chamber Symphonies [HMU 907634]\04 - IV. Largo (attaca).wav
Pre-gap length 0:00:00.16
Peak level 93.7 %
Extraction speed 1.7 X
Track quality 100.0 %
Test CRC B9198600
Copy CRC B9198600
Accurately ripped (confidence 1) [0735354A] (AR v2)
Copy OK
Track 5
Filename C:\FLACs\Shostakovich - Chamber Symphonies [HMU 907634]\05 - V. Largo.wav
Pre-gap length 0:00:00.28
Peak level 55.0 %
Extraction speed 1.8 X
Track quality 100.0 %
Test CRC 57E3182A
Copy CRC 57E3182A
Accurately ripped (confidence 1) [4153082D] (AR v2)
Copy OK
Track 6
Filename C:\FLACs\Shostakovich - Chamber Symphonies [HMU 907634]\06 - Chamber Symphony, op. 49a - I. Moderato.wav
Pre-gap length 0:00:06.84
Peak level 64.7 %
Extraction speed 1.7 X
Track quality 99.9 %
Test CRC B562B91B
Copy CRC B562B91B
Accurately ripped (confidence 1) [A5DF3919] (AR v2)
Copy OK
Track 7
Filename C:\FLACs\Shostakovich - Chamber Symphonies [HMU 907634]\07 - II. Moderato.wav
Pre-gap length 0:00:03.41
Peak level 66.3 %
Extraction speed 2.0 X
Track quality 100.0 %
Test CRC 9A514818
Copy CRC 9A514818
Accurately ripped (confidence 1) [E6BE02F7] (AR v2)
Copy OK
Track 8
Filename C:\FLACs\Shostakovich - Chamber Symphonies [HMU 907634]\08 - III. Allegro molto.wav
Pre-gap length 0:00:02.81
Peak level 30.9 %
Extraction speed 1.9 X
Track quality 100.0 %
Test CRC DD3F8533
Copy CRC DD3F8533
Accurately ripped (confidence 1) [647EA1CE] (AR v2)
Copy OK
Track 9
Filename C:\FLACs\Shostakovich - Chamber Symphonies [HMU 907634]\09 - IV. Allegro.wav
Pre-gap length 0:00:03.85
Peak level 91.4 %
Extraction speed 2.1 X
Track quality 100.0 %
Test CRC 79E29A0C
Copy CRC 79E29A0C
Accurately ripped (confidence 1) [5950792A] (AR v2)
Copy OK
Track 10
Filename C:\FLACs\Shostakovich - Chamber Symphonies [HMU 907634]\10 - Chamber Symphony, op. 118a - I. Andante.wav
Pre-gap length 0:00:05.13
Peak level 31.1 %
Extraction speed 2.0 X
Track quality 99.9 %
Test CRC 6872A4B3
Copy CRC 6872A4B3
Accurately ripped (confidence 1) [07E7C3F7] (AR v2)
Copy OK
Track 11
Filename C:\FLACs\Shostakovich - Chamber Symphonies [HMU 907634]\11 - II. Allegretto furioso.wav
Pre-gap length 0:00:01.49
Peak level 93.6 %
Extraction speed 2.0 X
Track quality 99.9 %
Test CRC F8BB637A
Copy CRC F8BB637A
Accurately ripped (confidence 1) [E4A9F122] (AR v2)
Copy OK
Track 12
Filename C:\FLACs\Shostakovich - Chamber Symphonies [HMU 907634]\12 - III. Adagio.wav
Pre-gap length 0:00:03.33
Peak level 55.9 %
Extraction speed 2.5 X
Track quality 100.0 %
Test CRC 499E9EE1
Copy CRC 499E9EE1
Accurately ripped (confidence 1) [1BADA298] (AR v2)
Copy OK
Track 13
Filename C:\FLACs\Shostakovich - Chamber Symphonies [HMU 907634]\13 - IV. Allegretto.wav
Pre-gap length 0:00:00.34
Peak level 93.3 %
Extraction speed 2.6 X
Track quality 99.9 %
Test CRC 3361EC7E
Copy CRC 3361EC7E
Accurately ripped (confidence 1) [74F0B305] (AR v2)
Copy OK
All tracks accurately ripped
No errors occurred
End of status report
---- CUETools DB Plugin V2.1.3
[CTDB TOCID: eVKH8cPBiGQudfAFzaAxdffFVK4-] found, Submit result: eVKH8cPBiGQudfAFzaAxdffFVK4- has been confirmed
[61f1a391] (2/2) Accurately ripped
==== Log checksum 3C68E3A697AD18FE345DFC6629FA93EC581CEC1578FE8D2B2CB11D9BBB605823 ====



Показать сообщения:    

Текущее время: 03-Дек 03:19

Часовой пояс: UTC + 3


Вы не можете начинать темы
Вы не можете отвечать на сообщения
Вы не можете редактировать свои сообщения
Вы не можете удалять свои сообщения
Вы не можете голосовать в опросах
Вы не можете прикреплять файлы к сообщениям
Вы не можете скачивать файлы